Правила форума

  • В этом разделе создание новых тем Запрещено.
  • Для создания новых тем пользуйтесь Корневым разделом DVD и HD фильмы.
Начать новую темуОтветить на тему  [ 1 сообщение ] 
Торрент файл
Размер: 4.36 GB • Зарегистрирован: 4 года 7 месяцев • Статус: Проверено
Скачан: 127 раз • Желающих скачать: 0 • Поблагодарили: 26 раз
 Раздают: 0  |  0 KB/s  ]   Качают: 0  |  0 KB/s  ] 
 Полного источника не было 2 года 6 месяцев 
Сообщения
 Добавлено: 2012-04-23 11:28
DVD Release Group
Аватара пользователя
Стаж: 7 лет 1 месяц
Сообщений: 3541
Спасибок: 246632
Лайков: 1016
Тормоз

Brake


Изображение


Год выпуска: 2012
Страна: США
Жанр: Триллер
Продолжительность: 01:27:22
Перевод: Профессиональный (многоголосый, закадровый)
Субтитры: Русские
Режиссер: Гейб Торрес
В ролях: Стивен Дорфф, Кайлер Ли, ДжейАр Борн, Том Беренджер, Кали Роча, Марк Уоллес, Прюитт Тэйлор Винс, Сэмми Шейк, Кент Шокнек, Джейлен Мур, Стефен Дж. Бриджуотер, Джейсон Рафаэль, Марисоль Де Иисус, Майкл Франклин
Описание: Секретного Агента Джереми Рейнса похищают загадочные незнакомцы. Одного из лучших мастеров своего дела обвели вокруг пальца и используют в качестве приманки в террористической операции. Жизнь Джереми и всей его семьи — на волоске. Счет идет на минуты, и у него остается все меньше и меньше времени, чтобы сдать похитителям секретную информацию, которую он поклялся хранить ценой собственной жизни.
Кинопоиск: 6.33 (155)
IMDb: 5.9 (1186)
Дополнительно:
Исходник: DVD9 (6.17 Гб) [лицензия, PAL 16:9].
Убрано: допы, реклама, заставки, предупреждения, Russian (Dolby AC3, 2 ch).
Сжатие фильма 29.1 % сжатия (без учета ручного перераспределения битрейта, за счет большего сжатия конечных титров).
Работоспособность проверена на софтовом плеере Windows Media и бытовом LG.
Качество: DVD5 (сжатый)
Формат: DVD Video
Видео кодек: MPEG2
Аудио кодек: AC3
Видео: 720х576 25fps 5118Kbps
Аудио:
Аудио Rus: 48kHz 6ch 384Kbps
Аудио Eng: 48kHz 6ch 384Kbps
"MediaInfo"
Формат : MPEG-PS
Размер файла : 1024 Мбайт
Продолжительность : 23 м.
Режим общего битрейта : Переменный
Общий поток : 6006 Кбит/сек
Библиотека кодирования : encoded by TMPGEnc (ver. 2.524.63.181)

Видео
Идентификатор : 224 (0xE0)
Формат : MPEG Video
Версия формата : Version 2
Профиль формата : Main@Main
Параметр BVOP формата : Да
Параметр матрицы формата : Выборочная
Продолжительность : 23 м.
Вид битрейта : Переменный
Битрейт : 5118 Кбит/сек
Ширина : 720 пикселей
Высота : 576 пикселей
Соотношение сторон : 16:9
Частота кадров : 25,000 кадров/сек
Стандарт вещания : PAL
Цветовое пространство : YUV
Субдискретизация насыщенности : 4:2:0
Битовая глубина : 8 бит
Метод сжатия : С потерями
Бит/(Пиксели*Кадры) : 0.494
Размер потока : 873 Мбайт (85%)
Библиотека кодирования : TMPGEnc 2.524.63.181

Аудио #1
Идентификатор : 189 (0xBD)-128 (0x80)
Формат : AC-3
Формат/Информация : Audio Coding 3
Расширение режима : CM (complete main)
Режим смешивания : DVD-Video
Продолжительность : 23 м.
Вид битрейта : Постоянный
Битрейт : 384 Кбит/сек
Каналы : 6 каналов
Расположение каналов : Front: L C R, Side: L R, LFE
Частота : 48,0 КГц
Битовая глубина : 16 бит
Метод сжатия : С потерями
Задержка видео : 6 мс.
Размер потока : 65,5 Мбайт (6%)

Аудио #2
Идентификатор : 189 (0xBD)-129 (0x81)
Формат : AC-3
Формат/Информация : Audio Coding 3
Расширение режима : CM (complete main)
Режим смешивания : DVD-Video
Продолжительность : 23 м.
Вид битрейта : Постоянный
Битрейт : 384 Кбит/сек
Каналы : 6 каналов
Расположение каналов : Front: L C R, Side: L R, LFE
Частота : 48,0 КГц
Битовая глубина : 16 бит
Метод сжатия : С потерями
Задержка видео : 6 мс.
Размер потока : 65,5 Мбайт (6%)

Меню
Свернуть

"Скриншоты"
Изображение
Изображение
Изображение
Изображение
Изображение
Изображение
Изображение
Изображение
Изображение
Изображение
Свернуть

Раздача группы:
Изображение
Не в сети
Профиль  
Начать новую темуОтветить на тему  [ 1 сообщение ] 
Вы не можете начинать темы
Вы не можете отвечать на сообщения
Вы не можете редактировать свои сообщения
Вы не можете удалять свои сообщения