Правила форума

  • В этом разделе создание новых тем Запрещено.
  • Для создания новых тем пользуйтесь Корневым разделом DVD и HD фильмы.
Начать новую темуОтветить на тему  [ Сообщений: 6 ] 
Торрент файл
Размер: 3.9 GB • Зарегистрирован: 3 года 6 месяцев • Статус: Проверено
Скачан: 270 раз • Желающих скачать: 0 • Поблагодарили: 82 раза
 Раздают: 0  |  0 KB/s  ]   Качают: 0  |  0 KB/s  ] 
 Полного источника не было 1 месяц 20 дней 
Сообщения
 Добавлено: 2013-06-05 05:50
DVD Release Group
Аватара пользователя
Стаж: 7 лет 1 месяц
Сообщений: 3570
Спасибок: 247874
Лайков: 1021
Тревожный вызов

The Call


Изображение


Год выпуска: 2013
Страна: США
Жанр: Триллер
Продолжительность: 01:30:06
Перевод: Профессиональный (полное дублирование)
Субтитры: Нет
Режиссер: Брэд Андерсон
В ролях: Холли Берри, Эбигейл Бреслин, Моррис Честнат, Майкл Эклунд, Майкл Империоли, Жустина Мачадо, Хосе Суньига, Рома Маффиа, Эви Томпсон
Описание: Фильм расскажет про оператора колл-центра 911, куда поступает звонок от девочки-подростка, ставшей жертвой маньяка. Героине предстоит столкнуться со своими кошмарами, чтобы спасти девушку.
Изображение Изображение
Дополнительно: Нет
Качество: DVD5
Формат: DVD Video
Видео кодек: MPEG2
Аудио кодек: AC3
Видео: 720х576 25fps 5675Kbps
Аудио: 48kHz 6ch 448Kbps
"MediaInfo"
Формат : MPEG-PS
Размер файла : 1024 Мбайт
Продолжительность : 22 м.
Режим общего битрейта : Переменный
Общий поток : 6247 Кбит/сек

Видео
Идентификатор : 224 (0xE0)
Формат : MPEG Video
Версия формата : Version 2
Профиль формата : Main@Main
Параметр BVOP формата : Да
Параметр матрицы формата : Выборочная
Продолжительность : 22 м.
Вид битрейта : Переменный
Битрейт : 5675 Кбит/сек
Максимальный битрейт : 8000 Кбит/сек
Ширина : 720 пикселей
Высота : 576 пикселей
Соотношение сторон : 16:9
Частота кадров : 25,000 кадров/сек
Стандарт вещания : PAL
Цветовое пространство : YUV
Субдискретизация насыщенности : 4:2:0
Битовая глубина : 8 бит
Тип развёртки : Чересстрочная
Порядок развёртки : Верхнее поле первое
Метод сжатия : С потерями
Бит/(Пиксели*Кадры) : 0.547
Размер потока : 930 Мбайт (91%)

Аудио
Идентификатор : 189 (0xBD)-128 (0x80)
Формат : AC-3
Формат/Информация : Audio Coding 3
Расширение режима : CM (complete main)
Режим смешивания : DVD-Video
Продолжительность : 22 м.
Вид битрейта : Постоянный
Битрейт : 448 Кбит/сек
Каналы : 6 каналов
Расположение каналов : Front: L C R, Side: L R, LFE
Частота : 48,0 КГц
Битовая глубина : 16 бит
Метод сжатия : С потерями
Размер потока : 73,4 Мбайт (7%)

Меню
Свернуть

"Скриншоты"
Изображение
Изображение
Изображение
Изображение
Изображение
Изображение
Изображение
Изображение
Свернуть

Раздача группы:
Изображение
В сети
Профиль  
 Добавлено: 2013-06-07 19:23 (спустя 2 дня 13 часов)
Аватара пользователя
Стаж: 6 лет 8 месяцев
Возраст: 41
Сообщений: 28
Лайков: 3
Чувак/Чувиха где 720p? :bra_vo: :sh_ok:
Не в сети
Профиль  
 Добавлено: 2013-06-07 19:40 (спустя 17 минут)
DVD Release Group
Аватара пользователя
Стаж: 7 лет 1 месяц
Сообщений: 3570
Спасибок: 247874
Лайков: 1021

saminva:

Чувак/Чувиха где 720p? :bra_vo: :sh_ok:
Чувак/Чувиха блюрея нет.
В сети
Профиль  
 Добавлено: 2013-06-08 17:19 (спустя 21 час)
Кинокомментатор
Аватара пользователя
Стаж: 9 лет 1 месяц
Сообщений: 1332
Лайков: 54
ну ничего так киноша) посмотреть можно!) вполне!) интересно и динамично;) 7/10
_________________
Я ВКонтакте
Не в сети
Профиль  
 Добавлено: 2013-06-10 10:21 (спустя 1 день 17 часов)
Стаж: 7 лет 2 месяца
Сообщений: 244
Спасибо!Отличный фильм!
Не в сети
Профиль  
 Добавлено: 2013-07-21 15:07 (спустя 1 месяц 11 дней)
Стаж: 6 лет 9 месяцев
Сообщений: 59
Ок!
Не в сети
Профиль  
Начать новую темуОтветить на тему  [ Сообщений: 6 ] 
Вы не можете начинать темы
Вы не можете отвечать на сообщения
Вы не можете редактировать свои сообщения
Вы не можете удалять свои сообщения