Правила форума

  • В этом разделе создание новых тем Запрещено.
  • Для создания новых тем пользуйтесь Корневым разделом DVD и HD фильмы.
Начать новую темуОтветить на тему  [ Сообщений: 3 ] 
Торрент файл
Размер: 4.37 GB • Зарегистрирован: 5 лет • Статус: Проверено
Скачан: 508 раз • Желающих скачать: 0 • Поблагодарили: 59 раз
 Раздают: 0  |  0 KB/s  ]   Качают: 0  |  0 KB/s  ] 
 Полного источника не было 1 месяц 10 дней 
Сообщения
 Добавлено: 2011-11-17 17:27
Руководитель релиз-группы
Аватара пользователя
Стаж: 7 лет 5 месяцев
Возраст: 31
Сообщений: 3406
Спасибок: 46729
Лайков: 5
Изображение

Три метра над уровнем неба
Tres metros sobre el cielo


Год выпуска: 2010
Страна: Испания
Слоган: «Когда любовь уносит в облака...»
Жанр: драма, мелодрама
Продолжительность: 01:57:51
Перевод: Профессиональный (полное дублирование)
Режиссер: Фернандо Гонзалез Молина
Сценарий: Рамон Салазар, Федерико Моччиа
Продюсер: Мерседес Гамеро, Алех Пина, Франциско Рамос
Оператор: Дэниэл Аранио
Композитор: Манель Сантистебан
В ролях: Марио Касас, Мария Вальверде, Альваро Сервантес, Марина Салас, Луис Фернандез, Андреа Дуро, Нереа Камачо, Диего Мартин, Кристина Плазас, Джорди Бош
Описание: История двух молодых людей, которые принадлежат к разным мирам. Баби - девушка из среднего класса, которая отображает доброту и невинность. Аче - мятежный мальчик, импульсивный, бессознательный, склонный к риску и опасности. Это маловероятно, практически невозможно, но их встреча неизбежна, и в этом неистовом путешествии между ними возникает первая большая любовь.
Изображение
Релиз: Изображение Раздача группы: Изображение
Качество: DVD5 (сжатый)
Формат: DVD Video
Видео: MPEG2; PAL 16:9 (720x576)
Аудио #1: Dolby AC3, 6 ch, 384 Kbps Russian
Аудио #2: Dolby AC3, 6 ch, 384 Kbps English
Субтитры: русские
Дополнительная информация :
Исходник : DVD9 (7.28 Гб) [лицензия, PAL 16:9]
Убрано : допы, реклама, заставки, предупреждения, Russian (Dolby AC3, 2 ch)
Сжатие фильма : 21.8 % сжатия (без учета ручного перераспределения битрейта, за счет большего сжатия конечных титров)
использовались программы
    DVDRemakePro
    Photoshop
    MuxMan
    Rebuilder и CCE (Cinema Craft Encoder), 5 проходов
    Работоспособность проверена на софтовом плеере Windows Media и бытовом LG
Свернуть
DVDInfo
    Title: Tri.metra.nad.urovnem.neba_2010_DVD5.[R.G.Daredevil]
    Size: 4.37 Gb ( 4 584 450,00 KBytes ) - DVD-5
    Enabled regions: 1, 2, 3, 4, 5, 6, 7, 8

    VTS_01 :
    Play Length: 00:00:01+01:57:51+00:00:01
    Video: PAL 16:9 (720x576) VBR, Auto Letterboxed
    Audio:
    Russian (Dolby AC3, 6 ch)
    Russian (Dolby AC3, 2 ch)
    English (Dolby AC3, 6 ch)
    Russian (Dolby AC3, 2 ch)
    Subtitles:
    Russian
    Not specified

    VTS_02 :
    Play Length: 00:00:00+00:00:00+00:00:00
    Video: PAL 16:9 (720x576) VBR, Auto Letterboxed
    Audio:
    Russian (Dolby AC3, 6 ch)

    VTS_03 :
    Play Length: 00:00:00+00:00:01+00:00:00+00:00:00+00:00:01+00:00:00+00:00:00+00:00:01+00:00:00
    Video: PAL 16:9 (720x576) VBR, Auto Letterboxed
    Audio:
    Russian (Dolby AC3, 2 ch)

    VTS_04 :
    Play Length: 00:00:00+00:00:01+00:00:00
    Video: PAL 16:9 (720x576) VBR, Auto Letterboxed
    Audio:
    Russian (Dolby AC3, 2 ch)

    VTS_05 :
    Play Length: 00:00:00+00:00:01+00:00:00
    Video: PAL 16:9 (720x576) VBR, Auto Letterboxed
    Audio:
    Russian (Dolby AC3, 2 ch)
Свернуть
mediainfo
    Формат : MPEG-PS
    Размер файла : 1024 Мбайт
    Продолжительность : 25 м.
    Режим общего битрейта : Переменный
    Общий поток : 5707 Кбит/сек

    Видео
    Идентификатор : 224 (0xE0)
    Формат : MPEG Video
    Версия формата : Version 2
    Профиль формата : Main@Main
    Параметр BVOP формата : Да
    Параметр матрицы формата : Выборочная
    Продолжительность : 25 м.
    Вид битрейта : Переменный
    Битрейт : 4825 Кбит/сек
    Максимальный битрейт : 6000 Кбит/сек
    Ширина : 720 пикселей
    Высота : 576 пикселей
    Соотношение сторон : 16:9
    Частота кадров : 25,000 кадров/сек
    Стандарт вещания : PAL
    Цветовое пространство : YUV
    Субдискретизация насыщенности : 4:2:0
    Битовая глубина : 8 бит
    Тип развёртки : Чересстрочная
    Порядок развёртки : Нижнее поле первое
    Метод сжатия : С потерями
    Бит/(Пиксели*Кадры) : 0.465
    Размер потока : 866 Мбайт (85%)

    Аудио #1
    Идентификатор : 189 (0xBD)-128 (0x80)
    Формат : AC-3
    Формат/Информация : Audio Coding 3
    Расширение режима : CM (complete main)
    Режим смешивания : DVD-Video
    Продолжительность : 25 м.
    Вид битрейта : Постоянный
    Битрейт : 384 Кбит/сек
    Каналы : 6 каналов
    Расположение каналов : Front: L C R, Side: L R, LFE
    Частота : 48,0 КГц
    Битовая глубина : 16 бит
    Метод сжатия : С потерями
    Размер потока : 68,9 Мбайт (7%)

    Аудио #2
    Идентификатор : 189 (0xBD)-130 (0x82)
    Формат : AC-3
    Формат/Информация : Audio Coding 3
    Расширение режима : CM (complete main)
    Режим смешивания : DVD-Video
    Продолжительность : 25 м.
    Вид битрейта : Постоянный
    Битрейт : 384 Кбит/сек
    Каналы : 6 каналов
    Расположение каналов : Front: L C R, Side: L R, LFE
    Частота : 48,0 КГц
    Битовая глубина : 16 бит
    Метод сжатия : С потерями
    Размер потока : 68,9 Мбайт (7%)

    Текст
    Идентификатор : 189 (0xBD)-32 (0x20)
    Формат : RLE
    Формат/Информация : Run-length encoding
    Режим смешивания : DVD-Video
    Продолжительность : 25 м.

    Меню
Свернуть
Скриншоты

меню
Изображение
Изображение
Изображение
Свернуть
Изображение
Изображение
Изображение
Изображение
Изображение
Свернуть
Не в сети
Профиль  
 Добавлено: 2012-08-10 21:43 (спустя 8 месяцев)
Аватара пользователя
Стаж: 8 лет 1 месяц
Возраст: 26
Сообщений: 1245
Спасибок: 634
Лайков: 1
Лучше лук почистить чем этот фильм смотреть,и то больше пользы будет.
Не в сети
Профиль  
 Добавлено: 2012-08-11 21:46 (спустя 1 день)
Стаж: 6 лет 9 месяцев
Сообщений: 36
Лайков: 1
))
Не в сети
Профиль  
Начать новую темуОтветить на тему  [ Сообщений: 3 ] 
Вы не можете начинать темы
Вы не можете отвечать на сообщения
Вы не можете редактировать свои сообщения
Вы не можете удалять свои сообщения