Правила форума

  • В этом разделе создание новых тем Запрещено.
  • Для создания новых тем пользуйтесь Корневым разделом DVD и HD фильмы.
Начать новую темуОтветить на тему  [ 1 сообщение ] 
Торрент файл
Размер: 5.04 GB • Зарегистрирован: 4 года 1 месяц • Статус: Проверено
Скачан: 39 раз • Желающих скачать: 0 • Поблагодарили: 13 раз
 Раздают: 0  |  0 KB/s  ]   Качают: 0  |  0 KB/s  ] 
 Полного источника не было 10 месяцев 
Сообщения
 Добавлено: 2012-11-08 11:30
Аватара пользователя
Стаж: 5 лет 6 месяцев
Возраст: 30
Сообщений: 353
Спасибок: 7455
Убойное Рождество Гарольда и Кумара / A Very Harold & Kumar 3D Christmas

Изображение


Год выпуска: 2011
Страна: США (Kingsgate Films, Mandate Pictures, New Line Cinema)
Слоган: «Christmas comes prematurely»
Жанр: комедия
Продолжительность: 01:25:58
Перевод: Оригинальная звуковая дорожка + Оригинальная звуковая дорожка + Оригинальная звуковая дорожка + Профессиональный (многоголосый закадровый) + Оригинальная звуковая дорожка + Оригинальная звуковая дорожка
Субтитры: Русские, английские, арабские, чешские, греческие, иврит, мадьярские, турецкие

Режиссёр: Тодд Штраус-Шульсон / Todd Strauss-Schulson
Сценарист: Джон Харвитц, Хейден Шлоссберг
Продюсер: Грег Шапиро, Ричард Бренер, Николь Браун
Оператор: Майкл Баррет
Композитор: Уильям Росс
В ролях: Джон Чо, Кэл Пенн, Нил Патрик Харрис, Пэттон Освальт, Изабелла Жельняк, Остин Бикел, Инга Р.Уилсон, Бобби Ли, Томас Леннон, Амир Блюменфилд

Описание: Прошло шесть лет после приключения в проливе Гуантанамо. На этот раз закадычные друзья Гарольд Ли и Кумар Пател сорвали праздник, случайно спалив дотла призовую рождественскую ель тестя Гарольда.

Доп.информация: Удалённые сцены
Рейтинг MPAA: Рейтинг R (Подростки до 17 лет допускаются на фильм только в сопровождении одного из родителей)
Мировая премьера: 4 ноября 2011
Бюджет: $19 000 000
Кассовые сборы: $35 387 212

Изображение Изображение Изображение


Качество: DVD9 R5
Формат: DVD Video
Видео кодек: MPEG2
Аудио кодек: AC3 (Dolby Digital)
Видео: PAL 16:9 (720x576(0.605)) MPEG Video, 25,000 кадр/сек, 6275 Кбит/сек
Аудио #1: English (Dolby AC3, 6 ch) 384 Кбит/сек, 48,0 КГц [Оригинальная звуковая дорожка]
Аудио #2: Czech(Ceske) (Dolby AC3, 6 ch) 384 Кбит/сек, 48,0 КГц [Оригинальная звуковая дорожка]
Аудио #3: Magyar (Dolby AC3, 6 ch) 384 Кбит/сек, 48,0 КГц [Оригинальная звуковая дорожка]
Аудио #4: Russian (Dolby AC3, 6 ch) 384 Кбит/сек, 48,0 КГц [Профессиональный (многоголосый закадровый)]
Аудио #5: Turkish (Dolby AC3, 2 ch) 192 Кбит/сек, 48,0 КГц [Оригинальная звуковая дорожка]
Аудио #6: English (Dolby AC3, 2 ch) 192 Кбит/сек, 48,0 КГц [Оригинальная звуковая дорожка]
Субтитры: Русские, английские, арабские, чешские, греческие, иврит, мадьярские, турецкие

"DVDInfo"
Title: Ubojnoe.rozhdestvo.Garolda.i.Kumara.2011.DVD9
Size: 5.04 Gb ( 5 285 380,00 KBytes ) - DVD-9
Enabled regions: 1, 2, 3, 4, 5, 6, 7, 8

VTS_01 :
Play Length: 01:25:58+00:00:00+00:03:33
Video: PAL 16:9 (720x576) VBR, Auto Letterboxed
Audio:
English (Dolby AC3, 6 ch)
Czech(Ceske) (Dolby AC3, 6 ch)
Magyar (Dolby AC3, 6 ch)
Russian (Dolby AC3, 6 ch)
Turkish (Dolby AC3, 2 ch)
English (Dolby AC3, 2 ch)
Subtitles:
English
Arabic
Czech(Ceske)
Greek
Hebrew
Magyar
Russian
Turkish
Czech(Ceske)
Magyar
Russian
Turkish

VTS_02 :
Play Length: 00:00:10+00:00:12
Video: PAL 16:9 (720x576) VBR, Auto Letterboxed
Audio:
Not specified (Dolby AC3, 6 ch)
Subtitles:
Not specified

* Menus Information *

VIDEO_TS Menu
Video:
PAL 16:9 (720x576) VBR
Auto Pan&Scan
Language Unit :
Title Menu

VTS_01 Menu
Video:
PAL 16:9 (720x576) VBR
Auto Pan&Scan
Audio:
Not specified (Dolby AC3, 2 ch)
Language Unit :
Root Menu
Language Unit :

VTS_02 Menu
Video:
NTSC 4:3 (720x480) VBR
Auto Pan&Scan, Auto Letterboxed
Language Unit :
Root Menu
Свернуть

"MediaInfo"
Общее
Полное имя : J:\Новинки 2012\Ubojnoe.rozhdestvo.Garolda.i.Kumara.2011.DVD9\VIDEO_TS\VTS_01_1.VOB
Формат : MPEG-PS
Размер файла : 1024 Мбайт
Продолжительность : 17 м.
Режим общего битрейта : Переменный
Общий поток : 8165 Кбит/сек

Видео
Идентификатор : 224 (0xE0)
Формат : MPEG Video
Версия формата : Version 2
Профиль формата : Main@Main
Параметр BVOP формата : Да
Параметр матрицы формата : Выборочная
Параметр GOP формата : Variable
Продолжительность : 17 м.
Вид битрейта : Переменный
Битрейт : 6275 Кбит/сек
Максимальный битрейт : 7500 Кбит/сек
Ширина : 720 пикселей
Высота : 576 пикселей
Соотношение сторон : 16:9
Частота кадров : 25,000 кадров/сек
Стандарт вещания : PAL
Цветовое пространство : YUV
Субдискретизация насыщенности : 4:2:0
Битовая глубина : 8 бит
Тип развёртки : Чересстрочная
Порядок развёртки : Верхнее поле первое
Метод сжатия : С потерями
Бит/(Пиксели*Кадры) : 0.605
Размер потока : 787 Мбайт (77%)

Аудио #1
Идентификатор : 189 (0xBD)-128 (0x80)
Формат : AC-3
Формат/Информация : Audio Coding 3
Расширение режима : CM (complete main)
Параметр Endianness формата : Big
Режим смешивания : DVD-Video
Продолжительность : 17 м.
Вид битрейта : Постоянный
Битрейт : 384 Кбит/сек
Каналы : 6 каналов
Расположение каналов : Front: L C R, Side: L R, LFE
Частота : 48,0 КГц
Битовая глубина : 16 бит
Метод сжатия : С потерями
Размер потока : 48,1 Мбайт (5%)

Аудио #2
Идентификатор : 189 (0xBD)-129 (0x81)
Формат : AC-3
Формат/Информация : Audio Coding 3
Расширение режима : CM (complete main)
Параметр Endianness формата : Big
Режим смешивания : DVD-Video
Продолжительность : 17 м.
Вид битрейта : Постоянный
Битрейт : 384 Кбит/сек
Каналы : 6 каналов
Расположение каналов : Front: L C R, Side: L R, LFE
Частота : 48,0 КГц
Битовая глубина : 16 бит
Метод сжатия : С потерями
Размер потока : 48,1 Мбайт (5%)

Аудио #3
Идентификатор : 189 (0xBD)-130 (0x82)
Формат : AC-3
Формат/Информация : Audio Coding 3
Расширение режима : CM (complete main)
Параметр Endianness формата : Big
Режим смешивания : DVD-Video
Продолжительность : 17 м.
Вид битрейта : Постоянный
Битрейт : 384 Кбит/сек
Каналы : 6 каналов
Расположение каналов : Front: L C R, Side: L R, LFE
Частота : 48,0 КГц
Битовая глубина : 16 бит
Метод сжатия : С потерями
Размер потока : 48,1 Мбайт (5%)

Аудио #4
Идентификатор : 189 (0xBD)-131 (0x83)
Формат : AC-3
Формат/Информация : Audio Coding 3
Расширение режима : CM (complete main)
Параметр Endianness формата : Big
Режим смешивания : DVD-Video
Продолжительность : 17 м.
Вид битрейта : Постоянный
Битрейт : 384 Кбит/сек
Каналы : 6 каналов
Расположение каналов : Front: L C R, Side: L R, LFE
Частота : 48,0 КГц
Битовая глубина : 16 бит
Метод сжатия : С потерями
Размер потока : 48,1 Мбайт (5%)

Аудио #5
Идентификатор : 189 (0xBD)-132 (0x84)
Формат : AC-3
Формат/Информация : Audio Coding 3
Профиль формата : Dolby Digital
Расширение режима : CM (complete main)
Параметр Endianness формата : Big
Режим смешивания : DVD-Video
Продолжительность : 17 м.
Вид битрейта : Постоянный
Битрейт : 192 Кбит/сек
Каналы : 2 канала
Расположение каналов : Front: L R
Частота : 48,0 КГц
Битовая глубина : 16 бит
Метод сжатия : С потерями
Размер потока : 24,1 Мбайт (2%)

Текст #1
Идентификатор : 189 (0xBD)-32 (0x20)
Формат : RLE
Формат/Информация : Run-length encoding
Режим смешивания : DVD-Video

Текст #2
Идентификатор : 189 (0xBD)-33 (0x21)
Формат : RLE
Формат/Информация : Run-length encoding
Режим смешивания : DVD-Video

Текст #3
Идентификатор : 189 (0xBD)-34 (0x22)
Формат : RLE
Формат/Информация : Run-length encoding
Режим смешивания : DVD-Video

Текст #4
Идентификатор : 189 (0xBD)-35 (0x23)
Формат : RLE
Формат/Информация : Run-length encoding
Режим смешивания : DVD-Video

Текст #5
Идентификатор : 189 (0xBD)-36 (0x24)
Формат : RLE
Формат/Информация : Run-length encoding
Режим смешивания : DVD-Video

Текст #6
Идентификатор : 189 (0xBD)-37 (0x25)
Формат : RLE
Формат/Информация : Run-length encoding
Режим смешивания : DVD-Video

Текст #7
Идентификатор : 189 (0xBD)-38 (0x26)
Формат : RLE
Формат/Информация : Run-length encoding
Режим смешивания : DVD-Video

Текст #8
Идентификатор : 189 (0xBD)-39 (0x27)
Формат : RLE
Формат/Информация : Run-length encoding
Режим смешивания : DVD-Video

Свернуть


Скриншоты
Скриншоты меню
Изображение
Изображение
Изображение
Свернуть
Скриншоты фильма
Изображение
Изображение
Изображение
Изображение
Изображение
Изображение
Изображение
Изображение
Изображение
Изображение
Свернуть
Скриншоты доп.материалов
Изображение
Изображение
Изображение
Изображение
Свернуть
Свернуть


ИзображениеИзображение
Не в сети
Профиль  
Начать новую темуОтветить на тему  [ 1 сообщение ] 
Вы не можете начинать темы
Вы не можете отвечать на сообщения
Вы не можете редактировать свои сообщения
Вы не можете удалять свои сообщения