Правила форума

  • В этом разделе создание новых тем Запрещено.
  • Для создания новых тем пользуйтесь Корневым разделом DVD и HD фильмы.
Начать новую темуОтветить на тему  [ 1 сообщение ] 
Торрент файл
Размер: 4.28 GB • Зарегистрирован: 4 года 4 месяца • Статус: Проверено
Скачан: 99 раз • Желающих скачать: 0 • Поблагодарили: 13 раз
 Раздают: 0  |  0 KB/s  ]   Качают: 0  |  0 KB/s  ] 
 Полного источника не было 3 года 2 месяца 
Сообщения
 Добавлено: 2012-07-27 06:19
DVD Release Group
Аватара пользователя
Стаж: 7 лет 1 месяц
Сообщений: 3569
Спасибок: 247801
Лайков: 1020
Уличные танцы 2

StreetDance 2

«В два раза больше энергии и страсти»


Изображение


Год выпуска: 2012
Страна: Германия , Великобритания
Жанр: Мелодрама, музыка
Продолжительность: 01:21:28
Перевод: Профессиональный (полное дублирование)
Cубтитры: Русские
Режиссер: Макс Джива, Дания Пасквини
В ролях: Том Конти, Джордж Сэмпсон, София Бутелла, Фальк Хеншел, Джон Дагган, Стефани Нгуйен, Джоанна Джеффрис, Элла Рэгг, Мэтт Уильямс, Джеймс Майкл Ранкин..
Описание: Уличный танцор Эш жаждет реванша за проигрыш на конкурсе Streetdance, и хочет собрать команду, которой не будет равных. В поисках, которые забрасывают его в самые разные уголки мира, Эш встречает девушку Еву, танцующую сальсу, и влюбляется в нее. В Еве он видит свое счастье, свой собственный танец, свою победу… Но завоевать сердце этой девушки не так просто.
Свобода самовыражения и мастерство импровизации, страсть сальсы и дерзость ринга — все это танцы, танцы, танцы — в школах, в клубах, на улицах Рима, Парижа, Лондона, Нью-Йорка.
Кинопоиск: 6.0 (1694)
IMDb: 5.4 (1228)
Дополнительно:
Исходник: DVD9 (7.07 GB) [лицензия, PAL 16:9].
Убрано: 2 допа и подправлено меню допов, заставки и предупреждение.
Сжатие фильма нет.
Работоспособность проверена на софтовом плеере Windows Media и бытовом LG.
Качество: DVD5 (сжатый)
Формат: DVD Video
Видео кодек: MPEG2
Аудио кодек: AC3
Видео: 720х576 25fps 5169Kbps
Аудио:
Аудио Rus: 48kHz 6ch 384Kbps
Аудио Eng: 48kHz 6ch 384Kbps
Аудио Rus: 48kHz 2ch 192Kbps
"MediaInfo"
Формат : MPEG Video
Версия формата : Version 2
Профиль формата : Main@Main
Параметр BVOP формата : Да
Параметр матрицы формата : Выборочная
Продолжительность : 22 м.
Вид битрейта : Переменный
Битрейт : 5169 Кбит/сек
Ширина : 720 пикселей
Высота : 576 пикселей
Соотношение сторон : 16:9
Частота кадров : 25,000 кадров/сек
Стандарт вещания : PAL
Цветовое пространство : YUV
Субдискретизация насыщенности : 4:2:0
Битовая глубина : 8 бит
Метод сжатия : С потерями
Бит/(Пиксели*Кадры) : 0.499
Размер потока : 846 Мбайт (83%)

Аудио #1
Идентификатор : 189 (0xBD)-128 (0x80)
Формат : AC-3
Формат/Информация : Audio Coding 3
Расширение режима : CM (complete main)
Режим смешивания : DVD-Video
Продолжительность : 22 м.
Вид битрейта : Постоянный
Битрейт : 384 Кбит/сек
Каналы : 6 каналов
Расположение каналов : Front: L C R, Side: L R, LFE
Частота : 48,0 КГц
Битовая глубина : 16 бит
Метод сжатия : С потерями
Размер потока : 62,9 Мбайт (6%)

Аудио #2
Идентификатор : 189 (0xBD)-129 (0x81)
Формат : AC-3
Формат/Информация : Audio Coding 3
Расширение режима : CM (complete main)
Режим смешивания : DVD-Video
Продолжительность : 22 м.
Вид битрейта : Постоянный
Битрейт : 192 Кбит/сек
Каналы : 2 канала
Расположение каналов : Front: L R
Частота : 48,0 КГц
Битовая глубина : 16 бит
Метод сжатия : С потерями
Размер потока : 31,4 Мбайт (3%)

Аудио #3
Идентификатор : 189 (0xBD)-130 (0x82)
Формат : AC-3
Формат/Информация : Audio Coding 3
Расширение режима : CM (complete main)
Режим смешивания : DVD-Video
Продолжительность : 22 м.
Вид битрейта : Постоянный
Битрейт : 384 Кбит/сек
Каналы : 6 каналов
Расположение каналов : Front: L C R, Side: L R, LFE
Частота : 48,0 КГц
Битовая глубина : 16 бит
Метод сжатия : С потерями
Размер потока : 62,9 Мбайт (6%)

Меню
Свернуть

"Скриншоты"
Изображение
Изображение
Изображение
Изображение
Изображение
Изображение
Изображение
Изображение
Свернуть

Раздача группы:
Изображение
Не в сети
Профиль  
Начать новую темуОтветить на тему  [ 1 сообщение ] 
Вы не можете начинать темы
Вы не можете отвечать на сообщения
Вы не можете редактировать свои сообщения
Вы не можете удалять свои сообщения