Правила форума

  • В этом разделе создание новых тем Запрещено.
  • Для создания новых тем пользуйтесь Корневым разделом DVD и HD фильмы.
Начать новую темуОтветить на тему  [ Сообщений: 7 ] 
Торрент файл
Размер: 4.37 GB • Зарегистрирован: 4 года 1 месяц • Статус: Проверено
Скачан: 215 раз • Желающих скачать: 0 • Поблагодарили: 54 раза
 Раздают: 0  |  0 KB/s  ]   Качают: 0  |  0 KB/s  ] 
 Полного источника не было 1 год 3 месяца 
Сообщения
 Добавлено: 2012-11-04 10:37
Руководитель релиз-группы
Аватара пользователя
Стаж: 7 лет 5 месяцев
Возраст: 31
Сообщений: 3406
Спасибок: 46729
Лайков: 5
Изображение

Универсальный солдат 4
Universal Soldier: Day of Reckoning


Год выпуска: 2012
Страна: США
Слоган: «Under their own command»
Жанр: фантастика, боевик, триллер
Продолжительность: 01:53:37
Перевод: Профессиональный (полное дублирование)
Режиссер: Джон Хайамс
Сценарий: Джон Хайамс, Даг Магнусон, Джон Гринхалг, Моше Дайамант, Ричард Ротстайн
Продюсер: Аллен Шапиро, Крэйг Баумгартен, Моше Дайамант, Йорам Барзилай, Катерина Сланчева
Оператор: Ярон Леви
Композитор: Майкл Красснер
В ролях: Жан-Клод Ван Дамм, Скотт Эдкинс, Андрей Арловский, Дольф Лундгрен, Кристофер Ван Варенберг, Мария Боннер, Джеймс Роулингс, Сигал Дайэмант, Остин Нолти, Одри П. Скотт, Рой Джонс мл., Дэвид Дженсен
Бюджет: $11 500 000
Описание: Настоящее время. Программа «Unisol» по-прежнему актуальна и снова введена в эксплуатацию. Давним и непримиримым врагам времён Вьетнамской войны Эндрю Скотту и Люку Деверо суждено встретиться в очередной раз, дабы продолжить своё извечное противостояние и нескончаемую борьбу. Однако, новые опасности и трудности заставляют двух солдат на время объединиться пред лицом общей неприятности, что весьма ненадолго. Ясно одно: кровавый исход и брутальный финал неизбежен...
Изображение
MPAA: Изображение
Релиз: Изображение Раздача группы: Изображение
Качество: DVD5 (сжатый)
Формат: DVD Video
Видео: MPEG2; PAL 16:9 (720x576)
Аудио: Dolby AC3, 6 ch, 448 Kbps Russian
Субтитры: нет
Дополнительная информация :
Исходник : DVD9 (5.37 Гб) [лицензия, PAL 16:9]
Убрано : заставки, предупреждения, Russian (Dolby AC3, 2 ch).
Сжатие фильма : 19.4 % сжатия (без учета ручного перераспределения битрейта, за счет большего сжатия конечных титров)
использовались программы
    DVDRemakePro
    Photoshop
    MuxMan
    Rebuilder и CCE (Cinema Craft Encoder), 5 проходов
    Работоспособность проверена на софтовом плеере Windows Media и бытовом LG
Свернуть
DVDInfo
    Title: Universalniy.soldat.4_2012_DVD5.[R.G.Daredevil]
    Size: 4.37 Gb ( 4 581 542,00 KBytes ) - DVD-5
    Enabled regions: 1, 2, 3, 4, 5, 6, 7, 8

    VTS_01 :
    Play Length: 00:00:00
    Video: PAL 4:3 (720x576) VBR
    Audio:
    Russian (Dolby AC3, 2 ch)

    VTS_02 :
    Play Length: 00:00:02
    Video: PAL 16:9 (720x576) VBR, Auto Letterboxed
    Audio:
    Russian (Dolby AC3, 2 ch)

    VTS_03 :
    Play Length: 01:53:37
    Video: PAL 16:9 (720x576) VBR, Auto Letterboxed
    Audio:
    Russian (Dolby AC3, 2 ch)
Свернуть
mediainfo
    Формат : MPEG-PS
    Размер файла : 1024 Мбайт
    Продолжительность : 25 м.
    Режим общего битрейта : Переменный
    Общий поток : 5649 Кбит/сек

    Видео
    Идентификатор : 224 (0xE0)
    Формат : MPEG Video
    Версия формата : Version 2
    Профиль формата : Main@Main
    Параметр BVOP формата : Да
    Параметр матрицы формата : Выборочная
    Продолжительность : 25 м.
    Вид битрейта : Переменный
    Битрейт : 5089 Кбит/сек
    Максимальный битрейт : 9000 Кбит/сек
    Ширина : 720 пикселей
    Высота : 576 пикселей
    Соотношение сторон : 16:9
    Частота кадров : 25,000 кадров/сек
    Стандарт вещания : PAL
    Цветовое пространство : YUV
    Субдискретизация насыщенности : 4:2:0
    Битовая глубина : 8 бит
    Тип развёртки : Чересстрочная
    Порядок развёртки : Верхнее поле первое
    Метод сжатия : С потерями
    Бит/(Пиксели*Кадры) : 0.491
    Размер потока : 922 Мбайт (90%)

    Аудио
    Идентификатор : 189 (0xBD)-129 (0x81)
    Формат : AC-3
    Формат/Информация : Audio Coding 3
    Расширение режима : CM (complete main)
    Режим смешивания : DVD-Video
    Продолжительность : 25 м.
    Вид битрейта : Постоянный
    Битрейт : 448 Кбит/сек
    Каналы : 6 каналов
    Расположение каналов : Front: L C R, Side: L R, LFE
    Частота : 48,0 КГц
    Битовая глубина : 16 бит
    Метод сжатия : С потерями
    Размер потока : 81,2 Мбайт (8%)

    Меню
Свернуть
Скриншоты

меню
Изображение

Изображение
Свернуть
Изображение

Изображение

Изображение

Изображение
Свернуть
Не в сети
Профиль  
 Добавлено: 2012-11-04 14:20 (спустя 3 часа)
Аватара пользователя
Стаж: 8 лет 1 месяц
Сообщений: 166
Спасибок: 8
Лайков: 3
:ps_ih:
Не в сети
Профиль  
 Добавлено: 2012-11-04 14:33 (спустя 12 минут)
Стаж: 7 лет 4 месяца
Сообщений: 47
ван дамм лошара, решил деньжат срубить на старых идеях :ze_le_ny:


Последний раз редактировалось Scream77 2012-11-10 02:07, всего редактировалось 1 раз.
Не в сети
Профиль  
 Добавлено: 2012-11-04 15:11 (спустя 37 минут)
Стаж: 5 лет 7 месяцев
Сообщений: 11
как фильмец отпишитесь
Не в сети
Профиль  
 Добавлено: 2012-11-05 21:53 (спустя 1 день 6 часов)
Стаж: 5 лет 3 месяца
Сообщений: 150
Лайков: 2
Фильм полный отстой!!!!Никому не советую!!!!
Не в сети
Профиль  
 Добавлено: 2012-11-06 17:51 (спустя 19 часов)
Аватара пользователя
Стаж: 6 лет 8 месяцев
Сообщений: 128
Лайков: 25
Чушь собачья, У меня весь старый Ван Дамм, поздние фильмы удручали, Но это ...
Не в сети
Профиль  
 Добавлено: 2013-02-17 14:39 (спустя 3 месяца 10 дней)
Стаж: 5 лет 10 месяцев
Сообщений: 15
:po_zor:
Не в сети
Профиль  
Начать новую темуОтветить на тему  [ Сообщений: 7 ] 
Вы не можете начинать темы
Вы не можете отвечать на сообщения
Вы не можете редактировать свои сообщения
Вы не можете удалять свои сообщения