Правила форума

  • В этом разделе создание новых тем Запрещено.
  • Для создания новых тем пользуйтесь Корневым разделом DVD и HD фильмы.
Начать новую темуОтветить на тему  [ Сообщений: 3 ] 
Торрент файл
Размер: 4.24 GB • Зарегистрирован: 5 лет 1 месяц • Статус: Проверено
Скачан: 472 раза • Желающих скачать: 0 • Поблагодарили: 67 раз
 Раздают: 0  |  0 KB/s  ]   Качают: 0  |  0 KB/s  ] 
 Полного источника не было 10 месяцев 
Сообщения
 Добавлено: 2011-10-25 22:47
Аватара пользователя
Стаж: 5 лет 5 месяцев
Возраст: 30
Сообщений: 353
Спасибок: 7455
Успеть за 30 минут / 30 Minutes or Less

Изображение


Год выпуска: 2011
Страна: США, Германия, Канада (Media Rights Capital, Modern Videofilm Inc., Red Hour Films)
Жанр: боевик, комедия, криминал, приключения
Продолжительность: 01:19:42
Перевод: Профессиональный (дубляж)
Дублеры: Прохор Чеховской, Михаил Тихонов, Пётр Иващенко, Диомид Виноградов, Лина Иванова
Субтитры: Украинские

Режиссёр: Рубен Фляйшер / Ruben Fleischer
Сценарист: Майкл Дилиберти, Мэттью Салливан
Продюсер: Стюарт Корнфелд, Джереми Крамер, Бен Стиллер
Оператор: Джесс Холл
Композитор: Людвиг Горанссон

В ролях: Джесси Айзенберг, Азиз Ансари, Дэнни МакБрайд, Ник Свардсон, Дилшэд Вэдсариа, Майкл Пенья, Бьянка Кайлич, Фред Уорд, Сэм Джонстон, Джек Фоли

Описание: Ник — простой разносчик пиццы, чья размеренная жизнь буквально в одно мгновенье переворачивается с ног на голову, когда в нее с хитроумным планом врываются два бандита, мечтающих сорвать большой куш. Безбашенная парочка похищает Ника с целью заставить его ограбить банк.
Ник понимает, что ему никак не обойтись без помощи своего лучшего друга Чета. Вместе приятели должны обвести вокруг пальца похитителей, не попасться в руки полиции, да еще и разобраться друг с другом — ведь их отношения далеко не безоблачны. На эту практически невыполнимую миссию друзьям отведены считанные часы.

Доп.информация: нет
Рейтинг MPAA: Рейтинг R (Подростки до 17 лет допускаются на фильм только в сопровождении одного из родителей)
Мировая премьера: 12 августа 2011
Премьера в России: 29 сентября 2011, «WDSSPR»
Бюджет: $28 000 000
Кассовые сборы: + $2 386 850 = $39 440 774

Изображение Изображение Изображение

Качество: DVD5 R5
Формат: DVD Video
Видео кодек: MPEG2
Аудио кодек: AC3 (Dolby Digital)
Видео: PAL 16:9 (720x576(0.617)) MPEG Video, 25,000 кадр/сек, 6401 Кбит/сек
Аудио #1: Russian (Dolby AC3, 6 ch) 448 Кбит/сек, 48,0 КГц [Профессиональный (дубляж)]
Субтитры: Украинские

"DVDInfo"
Title:
Size: 4.25 Gb ( 4 461 088,00 KBytes ) - DVD-5
Enabled regions: 1, 2, 3, 4, 5, 6, 7, 8
VTS_01 :
Play Length: 01:19:42
Video: PAL 16:9 (720x576) VBR, Auto Letterboxed
Audio:
Russian (Dolby AC3, 6 ch)
Subtitles:
Russian
Ukrainian
Свернуть

"MediaInfo"
Общее
Полное имя : G:\Новинки 2011\Uspet.za.30.minut.2011.D.DVD5\VIDEO_TS\VTS_01_4.VOB
Формат : MPEG-PS
Размер файла : 1024 Мбайт
Продолжительность : 20 м.
Общий поток : 6988 Кбит/сек

Видео
Идентификатор : 224 (0xE0)
Формат : MPEG Video
Версия формата : Version 2
Профиль формата : Main@Main
Параметр BVOP формата : Да
Параметр матрицы формата : Выборочная
Продолжительность : 20 м.
Вид битрейта : Переменный
Битрейт : 6401 Кбит/сек
Максимальный битрейт : 9000 Кбит/сек
Ширина : 720 пикселей
Высота : 576 пикселей
Соотношение сторон : 16:9
Частота кадров : 25,000 кадров/сек
Стандарт вещания : PAL
Цветовое пространство : YUV
Субдискретизация насыщенности : 4:2:0
Битовая глубина : 8 бит
Метод сжатия : С потерями
Бит/(Пиксели*Кадры) : 0.617
Размер потока : 938 Мбайт (92%)

Аудио
Идентификатор : 189 (0xBD)-128 (0x80)
Формат : AC-3
Формат/Информация : Audio Coding 3
Расширение режима : CM (complete main)
Режим смешивания : DVD-Video
Продолжительность : 20 м.
Вид битрейта : Постоянный
Битрейт : 448 Кбит/сек
Каналы : 6 каналов
Расположение каналов : Front: L C R, Side: L R, LFE
Частота : 48,0 КГц
Битовая глубина : 16 бит
Метод сжатия : С потерями
Задержка видео : -568 мс.
Размер потока : 65,6 Мбайт (6%)

Текст #1
Идентификатор : 189 (0xBD)-34 (0x22)
Формат : RLE
Формат/Информация : Run-length encoding
Режим смешивания : DVD-Video
Задержка видео : 4 с. 600 мс.

Текст #2
Идентификатор : 189 (0xBD)-35 (0x23)
Формат : RLE
Формат/Информация : Run-length encoding
Режим смешивания : DVD-Video
Задержка видео : 4 с. 600 мс.

Свернуть

Скриншоты
Скриншоты меню
Изображение
Изображение
Изображение
Свернуть
Изображение
Изображение
Изображение
Изображение
Изображение
Изображение
Изображение
Изображение
Свернуть


Знаете ли Вы, что...
Фильм снимался в Гранд-Рапидс, штат Мичиган.
Свернуть
Изображение
Не в сети
Профиль  
 Добавлено: 2011-10-26 18:43 (спустя 19 часов)
Аватара пользователя
Стаж: 7 лет 1 месяц
Сообщений: 60
как с качеством?
:( :( :(
Не в сети
Профиль  
 Добавлено: 2011-10-28 16:02 (спустя 1 день 21 час)
Кинокомментатор
Аватара пользователя
Стаж: 9 лет 1 месяц
Сообщений: 1332
Лайков: 54
и что за украинские субтитры?))) накера?)))
есть непереведённые места, где они будут?)
_________________
Я ВКонтакте
Не в сети
Профиль  
Начать новую темуОтветить на тему  [ Сообщений: 3 ] 
Вы не можете начинать темы
Вы не можете отвечать на сообщения
Вы не можете редактировать свои сообщения
Вы не можете удалять свои сообщения