Правила форума

  • В этом разделе создание новых тем Запрещено.
  • Для создания новых тем пользуйтесь Корневым разделом DVD и HD фильмы.
Начать новую темуОтветить на тему  [ Сообщений: 2 ] 
Торрент файл
Размер: 4.37 GB • Зарегистрирован: 5 лет 9 месяцев • Статус: Проверено
Скачан: 116 раз • Желающих скачать: 0 • Поблагодарили: 24 раза
 Раздают: 0  |  0 KB/s  ]   Качают: 0  |  0 KB/s  ] 
 Полного источника не было 3 года 2 месяца 
Сообщения
 Добавлено: 2011-02-12 09:44
DVD Release Group
Аватара пользователя
Стаж: 7 лет 1 месяц
Сообщений: 3559
Спасибок: 247266
Лайков: 1018
В электрическом тумане

In the Electric Mist

«Никто не сможет избежать прошлых грехов»


Изображение

Год выпуска: 2009
Страна: США / Франция, TF1 International
Жанр: Триллер, драма, криминал, детектив
Продолжительность: 01:52:25
Перевод: Профессиональный (многоголосый) Лицензия
Субтитры: Русские
Режиссер: Бертран Тавернье
Сценарий: Ежи Кромоловски, Мэри Олсон-Кромоловски, Джеймс Ли Бурк
Продюсер: Дебора Добсон Бах, Clelio Boccato, Фридерик Бурбулон
Оператор: Бруно де Кейзер
Композитор: Марко Белтрами
Художник: Меридет Босвелл, Келли Керли, Кэти Киатта
Монтаж: Тьерри Дерокле, Ларри Мадараш, Роберто Сильви
В ролях: Томми Ли Джонс, Джон Гудмен, Питер Сарсгаард, Мэри Стинберген, Келли Макдоналд, Жустина Мачадо, Нед Битти, Джеймс Гэммон, Прюитт Тэйлор Винс, Левон Хельм
Описание: Детектив Дэйв Робишо пытается связать убийство мелкого местного воришки и видного гангстера из Нового Орлеана. Расследуя это дело, он мистическим образом несколько раз сталкивается с солдатом-конфедератом, участником гражданской войны в США.
Дополнительно: В исходнике было 9 VTS. Убраны все допы, кроме "Каталог" и "Создатели и исполнители", поскольку места они практически не занимают. Удален русский DTS. Меню переведено в статику (с оставлением в нем музыки), за исключением динамических переходов от главного меню ко всем остальным (места занимают очень мало). Видео исходника сжато при помощи Cinema Craft Encoder (ССЕ) в 5 проходов (Reduction Level for DVD-5: 75,8% - это процент качества видео в полученном диске по отношению к исходнику), конечные титры сжаты сильнее (51%). Оставлен один VTS с фильмом, меню и указанными допами, система команд диска полностью заменена. Использовалась программа DVDRemake.
Премьера (мир): 7 февраля 2009
Кинопоиск: 5.395 (146)
IMDB: 6.10 (5238)
Качество: DVD5 (сжатый)
Формат: DVD Video
Видео кодек: MPEG2
Аудио кодек: AC3
Видео: MPEG2 Video 720x576 (16:9) 25.00fps 4582Kbps
Аудио:
Audio Rus: Dolby AC3 48000Hz 6ch 448Kbps
Audio Eng: Dolby AC3 48000Hz 6ch 448Kbps
"DVDInfo"

В электрическом тумане DVD5\VIDEO_TS\VTS_01_1.VOB
General
Complete name : В электрическом тумане DVD5\VIDEO_TS\VTS_01_1.VOB
Format : MPEG-PS
File size : 1 024 MiB
Duration : 23mn 59s
Overall bit rate : 5 968 Kbps
Video #224
ID : 224 (0xE0)
Format : MPEG Video
Format version : Version 2
Format profile : Main@Main
Format settings, BVOP : Yes
Format settings, Matrix : Default
Duration : 23mn 59s
Bit rate mode : Variable
Bit rate : 4 953 Kbps
Nominal bit rate : 8 283 Kbps
Width : 720 pixels
Height : 576 pixels
Display aspect ratio : 4:3
Frame rate : 25.000 fps
Standard : PAL
Color space : YUV
Chroma subsampling : 4:2:0
Bit depth : 8 bits
Scan type : Interlaced
Scan order : Top Field First
Compression mode : Lossy
Bits/(Pixel*Frame) : 0.478
Stream size : 850 MiB (83%)
Audio #128
ID : 128 (0x80)
Format : AC-3
Format/Info : Audio Coding 3
Mode extension : CM (complete main)
Duration : 23mn 59s
Bit rate mode : Constant
Bit rate : 448 Kbps
Channel(s) : 6 channels
Channel positions : Front: L C R, Side: L R, LFE
Sampling rate : 48.0 KHz
Bit depth : 16 bits
Compression mode : Lossy
Stream size : 76.9 MiB (8%)
Audio #129
ID : 129 (0x81)
Format : AC-3
Format/Info : Audio Coding 3
Mode extension : CM (complete main)
Duration : 23mn 59s
Bit rate mode : Constant
Bit rate : 448 Kbps
Channel(s) : 6 channels
Channel positions : Front: L C R, Side: L R, LFE
Sampling rate : 48.0 KHz
Bit depth : 16 bits
Compression mode : Lossy
Stream size : 76.9 MiB (8%)
Text #32
ID : 32 (0x20)
Format : RLE
Format/Info : Run-length encoding
Duration : 23mn 53s
Delay relative to video : 3s 800ms
Свернуть
"Скриншоты"

Изображение
Изображение
Изображение
Изображение
Изображение
Изображение
Свернуть
Раздача группы:
Изображение
Не в сети
Профиль  
 Добавлено: 2011-02-13 16:31 (спустя 1 день 6 часов)
Стаж: 5 лет 9 месяцев
Сообщений: 8
томми ли очень серьезный актер!!! :co_ol: превосходно играет! :bra_vo:
Не в сети
Профиль  
Начать новую темуОтветить на тему  [ Сообщений: 2 ] 
Вы не можете начинать темы
Вы не можете отвечать на сообщения
Вы не можете редактировать свои сообщения
Вы не можете удалять свои сообщения