Правила форума

  • В этом разделе создание новых тем Запрещено.
  • Для создания новых тем пользуйтесь Корневым разделом DVD и HD фильмы.
Начать новую темуОтветить на тему  [ Сообщений: 2 ] 
Торрент файл
Размер: 4 GB • Зарегистрирован: 4 года 11 месяцев • Статус: Проверено
Скачан: 89 раз • Желающих скачать: 0 • Поблагодарили: 15 раз
 Раздают: 0  |  0 KB/s  ]   Качают: 0  |  0 KB/s  ] 
 Полного источника не было 2 года 11 месяцев 
Сообщения
 Добавлено: 2011-12-05 14:01
Аватара пользователя
Стаж: 5 лет 5 месяцев
Возраст: 30
Сообщений: 353
Спасибок: 7455
В стиле jazz / В стиле jazz

Изображение


Год выпуска: 2010
Страна: Россия (Киноконцерн «Мосфильм», киностудия «Вертикаль»)
Жанр: мелодрама, комедия
Продолжительность: 01:33:20
Перевод: Оригинальная звуковая дорожка
Субтитры: украинские

Режиссёр: Станислав Говорухин
Сценарист: Станислав Говорухин
Продюсер: Екатерина Маскина, Александр Просянов
Оператор: Алишер Хамидходжаев
Композитор: Давид Голощекин

В ролях: Михал Жебровский, Аглая Шиловская, Елена Яковлева, Ольга Красько, Татьяна Устинова, Марат Башаров, Анатолий Белый, Федор Добронравов, Роман Карцев, Анна Самохина...

Описание: Это история непростых и в то же время забавных отношений, возникших между мужчиной и тремя женщинами. Герой — успешный молодой человек, обладающий редким мужским обаянием и, соответственно, способностью нравится всем женщинам без исключения, независимо от их возраста и положения в обществе. Героиня — девушка 26-ти лет, с головой ушедшая в работу, разочаровавшаяся в любви, изо дня в день живет по привычной схеме «дом-работа-дом» и уже не мечтает о женском счастье. Казалось бы, между ними должна вспыхнуть «любовь со счастливым концом», но… он знакомится с ее младшей сестрой и ее мамой, все еще настоящей красавицей. Без сомнения, со временем и они оказываются во власти обаяния главного героя. Так к кому же из трех женщин у него настоящие чувства?

Доп.информация: Фильм о фильме
Рейтинг MPAA: Рейтинг PG-13 (Дети до 13 лет допускаются на фильм только с родителями)
Мировая премьера: 4 ноября 2010

Изображение Изображение Изображение

Качество: DVD5 R5
Формат: DVD Video
Видео кодек: MPEG2
Аудио кодек: AC3 (Dolby Digital)
Видео: PAL 16:9 (720x576(0.705)) MPEG Video, 25,000 кадр/сек, 7305 Кбит/сек
Аудио #1: Russian (Dolby AC3, 2 ch) 192 Кбит/сек, 48,0 КГц [Оригинальная звуковая дорожка]
Субтитры: украинские
"DVDInfo"
Title: Рабочий
Size: 4.00 Gb ( 4 193 566 KBytes ) - DVD-5
Enabled regions: 1, 2, 3, 4, 5, 6, 7, 8

VTS_01 :
Play Length: 01:29:52+00:03:28
Video: PAL 16:9 (720x576) VBR, Auto Letterboxed
Audio:
Russian (Dolby AC3, 2 ch)
Subtitles:
Ukrainian

VTS_02 :
Play Length: 00:00:05+00:00:11
Video: PAL 16:9 (720x576) VBR, Auto Letterboxed
Audio:
Russian (Dolby AC3, 2 ch)

Свернуть

"MediaInfo"
Общее
Полное имя : G:\Новинки 2011\V.stile.jazz.2010.DVD5\VIDEO_TS\VTS_01_1.VOB
Формат : MPEG-PS
Размер файла : 1024 Мбайт
Продолжительность : 18 м.
Общий поток : 7649 Кбит/сек

Видео
Идентификатор : 224 (0xE0)
Формат : MPEG Video
Версия формата : Version 2
Профиль формата : Main@Main
Параметр BVOP формата : Да
Параметр матрицы формата : Выборочная
Продолжительность : 18 м.
Вид битрейта : Переменный
Битрейт : 7305 Кбит/сек
Максимальный битрейт : 8000 Кбит/сек
Ширина : 720 пикселей
Высота : 576 пикселей
Соотношение сторон : 16:9
Частота кадров : 25,000 кадров/сек
Стандарт вещания : PAL
Цветовое пространство : YUV
Субдискретизация насыщенности : 4:2:0
Битовая глубина : 8 бит
Тип развёртки : Чересстрочная
Порядок развёртки : Верхнее поле первое
Метод сжатия : С потерями
Бит/(Пиксели*Кадры) : 0.705
Размер потока : 978 Мбайт (95%)

Аудио
Идентификатор : 189 (0xBD)-128 (0x80)
Формат : AC-3
Формат/Информация : Audio Coding 3
Расширение режима : CM (complete main)
Режим смешивания : DVD-Video
Продолжительность : 18 м.
Вид битрейта : Постоянный
Битрейт : 192 Кбит/сек
Каналы : 2 канала
Расположение каналов : Front: L R
Частота : 48,0 КГц
Битовая глубина : 16 бит
Метод сжатия : С потерями
Размер потока : 25,7 Мбайт (3%)
Свернуть

Скриншоты
Скриншоты меню
Изображение
Изображение
Свернуть
Изображение
Изображение
Изображение
Изображение
Изображение
Изображение
Изображение
Изображение
Свернуть

ИзображениеИзображение
Не в сети
Профиль  
 Добавлено: 2011-12-05 23:14 (спустя 9 часов)
Аватара пользователя
Стаж: 7 лет 8 месяцев
Сообщений: 71
voovaz
дружище может я не прав но ты фильм по моему не туда закиул????здесь вроде как зарубежные :-D :-D :-D
Не в сети
Профиль  
Начать новую темуОтветить на тему  [ Сообщений: 2 ] 
Вы не можете начинать темы
Вы не можете отвечать на сообщения
Вы не можете редактировать свои сообщения
Вы не можете удалять свои сообщения