Правила форума

  • В этом разделе создание новых тем Запрещено.
  • Для создания новых тем пользуйтесь Корневым разделом DVD и HD фильмы.
Начать новую темуОтветить на тему  [ 1 сообщение ] 
Торрент файл
Размер: 5.51 GB • Зарегистрирован: 3 года 7 месяцев • Статус: Проверено
Скачан: 34 раза • Желающих скачать: 0 • Поблагодарили: 10 раз
 Раздают: 0  |  0 KB/s  ]   Качают: 0  |  0 KB/s  ] 
 Полного источника не было 10 месяцев 
Сообщения
 Добавлено: 2013-04-13 06:28
Руководитель релиз-группы
Аватара пользователя
Стаж: 7 лет 4 месяца
Возраст: 31
Сообщений: 3407
Спасибок: 46728
Лайков: 5
Изображение

Влюбленные
Belle du Seigneur


Год выпуска: 2012
Страна: Франция, Люксембург, Германия, Бельгия, Швейцария, Великобритания
Слоган: «По лезвию страсти»
Жанр: драма, мелодрама
Продолжительность: 01:40:20
Перевод: Профессиональный (полное дублирование) [лицензия]
Режиссер: Гленио Бондер
Сценарий: Гленио Бондер, Винченцо Черами, Джеймс Дирден, Альберт Коэн
Продюсер: Боб Беллион, Эрве Клерк, Джимми Де Брэбэнт, Тьерри де Навасель, Пол Тиверс
Оператор: Эдуарду Серра
Композитор: Габриэль Яред
В ролях: Джонатан Риз Майерс, Наталья Водянова, Эд Стоппард, Марианна Фэйтфулл, Мария Бонневи, Джанин Хорсбур, Лесли Вудхолл, Джимми Де Брэбэнт, Стефан Вейнерт, Гилберт Джонстон, Клер Джонстон, Андре Аренд ван де Ноорд
Бюджет: €10 000 000
Описание: В 1930-е высокопоставленный чиновник Лиги Наций Солаль приезжает в Женеву. Там он знакомится с замужней аристократкой Арианой, и через некоторое время у них начинается страстный роман.
Изображение
Релиз: Изображение Раздача группы: Изображение
Качество: DVD9
Формат: DVD Video
Видео: MPEG2; PAL 16:9 (720x576)
Аудио #1: Dolby AC3, 6 ch, 448 Kbps Russian
Аудио #2: DTS, 6 ch, 755 Kbps Russian
Аудио #3: Dolby AC3, 2 ch, 384 Kbps Russian
Субтитры: нет
Дополнительно: нет
DVDInfo
    Title: Vljublennye.2012.D.DVD.IRONCLUB
    Size: 5.51 Gb ( 5 780 220,00 KBytes ) - DVD-9
    Enabled regions: 1, 2, 3, 4, 5, 6, 7, 8

    VTS_01 :
    Play Length: 00:00:25+{00:00:25}+{00:00:25}
    Video: PAL 4:3 (720x576) VBR
    Audio:
    Russian (Dolby AC3, 6 ch)
    English (Dolby AC3, 6 ch)
    English (Dolby AC3, 6 ch)

    VTS_02 :
    Play Length: 01:40:20
    Video: PAL 16:9 (720x576) VBR, Auto Pan&Scan, Auto Letterboxed
    Audio:
    Russian (Dolby AC3, 6 ch)
    Russian (DTS, 5 ch)
    Russian (Dolby AC3, 2 ch)
Свернуть
mediainfo
    Формат : MPEG-PS
    Размер файла : 1024 Мбайт
    Продолжительность : 20 м.
    Режим общего битрейта : Переменный
    Общий поток : 7106 Кбит/сек

    Видео
    Идентификатор : 224 (0xE0)
    Формат : MPEG Video
    Версия формата : Version 2
    Профиль формата : Main@Main
    Параметр BVOP формата : Да
    Параметр матрицы формата : Выборочная
    Продолжительность : 20 м.
    Вид битрейта : Переменный
    Битрейт : 5570 Кбит/сек
    Максимальный битрейт : 8000 Кбит/сек
    Ширина : 720 пикселей
    Высота : 576 пикселей
    Соотношение сторон : 16:9
    Частота кадров : 25,000 кадров/сек
    Стандарт вещания : PAL
    Цветовое пространство : YUV
    Субдискретизация насыщенности : 4:2:0
    Битовая глубина : 8 бит
    Тип развёртки : Прогрессивная
    Метод сжатия : С потерями
    Бит/(Пиксели*Кадры) : 0.537
    Размер потока : 803 Мбайт (78%)

    Аудио #1
    Идентификатор : 189 (0xBD)-128 (0x80)
    Формат : AC-3
    Формат/Информация : Audio Coding 3
    Расширение режима : CM (complete main)
    Режим смешивания : DVD-Video
    Продолжительность : 20 м.
    Вид битрейта : Постоянный
    Битрейт : 448 Кбит/сек
    Каналы : 6 каналов
    Расположение каналов : Front: L C R, Side: L R, LFE
    Частота : 48,0 КГц
    Битовая глубина : 16 бит
    Метод сжатия : С потерями
    Размер потока : 64,5 Мбайт (6%)

    Аудио #2
    Идентификатор : 189 (0xBD)-130 (0x82)
    Формат : AC-3
    Формат/Информация : Audio Coding 3
    Расширение режима : CM (complete main)
    Режим смешивания : DVD-Video
    Продолжительность : 20 м.
    Вид битрейта : Постоянный
    Битрейт : 192 Кбит/сек
    Каналы : 2 канала
    Расположение каналов : Front: L R
    Частота : 48,0 КГц
    Битовая глубина : 16 бит
    Метод сжатия : С потерями
    Размер потока : 27,7 Мбайт (3%)

    Аудио #3
    Идентификатор : 189 (0xBD)-137 (0x89)
    Формат : DTS
    Формат/Информация : Digital Theater Systems
    Режим смешивания : DVD-Video
    Продолжительность : 20 м.
    Вид битрейта : Постоянный
    Битрейт : 755 Кбит/сек
    Каналы : 6 каналов
    Расположение каналов : Front: L C R, Side: L R, LFE
    Частота : 48,0 КГц
    Битовая глубина : 24 бит
    Метод сжатия : С потерями
    Размер потока : 109 Мбайт (11%)

    Меню

Свернуть
Скриншоты

меню
Изображение

Изображение

Изображение
Свернуть
Изображение

Изображение

Изображение

Изображение
Свернуть
Не в сети
Профиль  
Начать новую темуОтветить на тему  [ 1 сообщение ] 
Вы не можете начинать темы
Вы не можете отвечать на сообщения
Вы не можете редактировать свои сообщения
Вы не можете удалять свои сообщения