Правила форума

  • В этом разделе создание новых тем Запрещено.
  • Для создания новых тем пользуйтесь Корневым разделом DVD и HD фильмы.
Начать новую темуОтветить на тему  [ Сообщений: 2 ] 
Торрент файл
Размер: 4.37 GB • Зарегистрирован: 4 года 8 месяцев • Статус: Проверено
Скачан: 244 раза • Желающих скачать: 0 • Поблагодарили: 29 раз
 Раздают: 0  |  0 KB/s  ]   Качают: 0  |  0 KB/s  ] 
 Полного источника не было 9 месяцев 
Сообщения
 Добавлено: 2012-03-27 01:14
DVD Release Group
Аватара пользователя
Стаж: 7 лет 1 месяц
Сообщений: 3559
Спасибок: 247415
Лайков: 1018
Воин

Warrior


Изображение


Год выпуска: 2011
Страна: США
Жанр: Боевик, драма, спорт
Продолжительность: 02:14:06
Перевод: Профессиональный (многоголосый)
Cубтитры: Русские
Режиссер: Гэвин О’Коннор
В ролях: Джоэл Эдгертон, Том Харди, Ник Нолти, Дженнифер Моррисон, Фрэнк Грилло, Кевин Данн, Максимилианно Эрнандез, Брайан Коллен, Сэм Шеридан, Фернандо Чиен
Описание: Младший сын спившегося боксера возвращается домой, чтобы отец тренировал его для предстоящего турнира по боевым искусствам. Однако, на этом пути бойцу придется столкнуться со своим старшим братом.
Кинопоиск: 8.27 (11466)
IMDb: 8.3 (73893)
Дополнительно:
Исходник: DVD9 (7.39 GB) [лицензия, PAL 16:9].
Убрано: допы, реклама, заставки, предупреждения.
Сжатие фильма 36 % сжатия (без учета ручного перераспределения битрейта, за счет большего сжатия конечных титров).
Работоспособность проверена на софтовом плеере Windows Media и бытовом LG.
Качество: DVD5 (сжатый)
Формат: DVD Video
Видео кодек: MPEG2
Аудио кодек: AC3
Видео: 720x576 25.00fps 4291Kbps
Аудио:
Audio Rus: 48kHz 2ch 224Kbps
Audio Eng: 48kHz 2ch 224Kbps
"MediaInfo"

Формат : MPEG-PS
Размер файла : 1024 Мбайт
Продолжительность : 29 м.
Режим общего битрейта : Переменный
Общий поток : 4836 Кбит/сек

Видео
Идентификатор : 224 (0xE0)
Формат : MPEG Video
Версия формата : Version 2
Профиль формата : Main@Main
Параметр BVOP формата : Да
Параметр матрицы формата : Выборочная
Продолжительность : 29 м.
Вид битрейта : Переменный
Битрейт : 4291 Кбит/сек
Максимальный битрейт : 9000 Кбит/сек
Ширина : 720 пикселей
Высота : 576 пикселей
Соотношение сторон : 16:9
Частота кадров : 25,000 кадров/сек
Стандарт вещания : PAL
Цветовое пространство : YUV
Субдискретизация насыщенности : 4:2:0
Битовая глубина : 8 бит
Тип развёртки : Прогрессивная
Порядок развёртки : Нижнее поле первое
Метод сжатия : С потерями
Бит/(Пиксели*Кадры) : 0.414
Размер потока : 909 Мбайт (89%)

Аудио #1
Идентификатор : 189 (0xBD)-128 (0x80)
Формат : AC-3
Формат/Информация : Audio Coding 3
Расширение режима : CM (complete main)
Режим смешивания : DVD-Video
Продолжительность : 29 м.
Вид битрейта : Постоянный
Битрейт : 224 Кбит/сек
Каналы : 2 канала
Расположение каналов : Front: L R
Частота : 48,0 КГц
Битовая глубина : 16 бит
Метод сжатия : С потерями
Размер потока : 47,4 Мбайт (5%)

Аудио #2
Идентификатор : 189 (0xBD)-129 (0x81)
Формат : AC-3
Формат/Информация : Audio Coding 3
Расширение режима : CM (complete main)
Режим смешивания : DVD-Video
Продолжительность : 29 м.
Вид битрейта : Постоянный
Битрейт : 224 Кбит/сек
Каналы : 2 канала
Расположение каналов : Front: L R
Частота : 48,0 КГц
Битовая глубина : 16 бит
Метод сжатия : С потерями
Размер потока : 47,4 Мбайт (5%)

Меню
Свернуть

"Скриншоты"

Изображение
Изображение
Изображение
Изображение
Изображение
Изображение
Изображение
Изображение
Изображение
Свернуть

Раздача группы:
Изображение
Не в сети
Профиль  
 Добавлено: 2012-04-09 16:50 (спустя 13 дней)
Аватара пользователя
Стаж: 6 лет 11 месяцев
Сообщений: 167
хороший фильм не ожидал я такого фильма !!! всем смотреть !
Не в сети
Профиль  
Начать новую темуОтветить на тему  [ Сообщений: 2 ] 
Вы не можете начинать темы
Вы не можете отвечать на сообщения
Вы не можете редактировать свои сообщения
Вы не можете удалять свои сообщения