Правила форума

  • В этом разделе создание новых тем Запрещено.
  • Для создания новых тем пользуйтесь Корневым разделом DVD и HD фильмы.
Начать новую темуОтветить на тему  [ Сообщений: 4 ] 
Торрент файл
Размер: 4.14 GB • Зарегистрирован: 4 года 6 месяцев • Статус: Проверено
Скачан: 434 раза • Желающих скачать: 0 • Поблагодарили: 75 раз
 Раздают: 0  |  0 KB/s  ]   Качают: 0  |  0 KB/s  ] 
 Полного источника не было 21 день 
Сообщения
 Добавлено: 2012-06-03 01:11
Аватара пользователя
Стаж: 5 лет 6 месяцев
Возраст: 30
Сообщений: 353
Спасибок: 7455
Ворон / The Raven

Изображение


Год выпуска: 2012
Страна: США, Испания, Венгрия (FilmNation Entertainment, Galavis Film, Intrepid Pictures, Pioneer Pictures, Relativity Media)
Слоган: «Серийного убийцу остановит лишь тот, кто вдохновил его на преступление»
Жанр: триллер, детектив
Продолжительность: 01:45:56
Перевод: Профессиональный (дубляж)
Субтитры: Нет

Режиссёр: Джеймс МакТиг / James McTeigue
Сценарист: Бен Ливингстон, Ханна Шекспир
Продюсер: Марк Д. Эванс, Тревор Мэйси, Аарон Райдер
Оператор: Дэни Рулманн
Композитор: Лукас Видал
В ролях: Джон Кьюсак, Люк Эванс, Элис Ив, Брендан Глисон, Пэм Феррис, Брендан Койл, Оливер Джексон-Коэн, Кевин МакНэлли, Дэвид Леджено, Сергей Трифунович

Описание: Рассказ о последних днях жизни Эдгара Аллана По. Знаменитый поэт преследует серийного убийцу, чьи преступления очень похожи на те, что описаны в его произведениях.

Доп.информация: нет
Рейтинг MPAA: Рейтинг R (Подростки до 17 лет допускаются на фильм только в сопровождении одного из родителей)
Мировая премьера: 9 марта 2012
Премьера в России: 12 апреля 2012, «Top Film Distribution»
Бюджет: $26 000 000
Кассовые сборы: $19 330 830

Изображение Изображение Изображение

Качество: DVD5 R5
Формат: DVD Video
Видео кодек: MPEG2
Аудио кодек: AC3 (Dolby Digital)
Видео: PAL 16:9 (720x576(0.477)) MPEG Video, 25,000 кадр/сек, 4949 Кбит/сек
Аудио #1: Russian (Dolby AC3, 6 ch) 384 Кбит/сек, 48,0 КГц [Профессиональный (дубляж)]
Субтитры: Нет

"DVDInfo"
Title:
Size: 4.14 Gb ( 4 337 560 KBytes ) - DVD-5
Enabled regions: 1, 2, 3, 4, 5, 6, 7, 8

VTS_01 :
Play Length: 01:45:56
Video: PAL 16:9 (720x576) VBR, Auto Pan&Scan
Audio:
Russian (Dolby AC3, 6 ch)

VTS_02 :
Play Length: 00:00:05
Video: PAL 16:9 (720x576) VBR, Auto Pan&Scan

VTS_03 :
Play Length: 00:00:08
Video: PAL 4:3 (720x576) VBR

VTS_04 :
Play Length: 00:00:20
Video: PAL 4:3 (720x576) VBR
Audio:
English (Dolby AC3, 2 ch)

Menu Video:
PAL 4:3 (720x576) VBR
Auto Pan&Scan, Auto Letterboxed
Menu Russian Language Unit :
Root Menu
Chapter (PTT) Menu
Свернуть

"MediaInfo"
Общее
Полное имя : J:\Новинки 2012\Voron.2012.DVD5\VIDEO_TS\VTS_01_3.VOB
Формат : MPEG-PS
Размер файла : 1024 Мбайт
Продолжительность : 26 м.
Режим общего битрейта : Переменный
Общий поток : 5441 Кбит/сек

Видео
Идентификатор : 224 (0xE0)
Формат : MPEG Video
Версия формата : Version 2
Профиль формата : Main@Main
Параметр BVOP формата : Да
Параметр матрицы формата : Выборочная
Параметр GOP формата : M=3, N=15
Продолжительность : 26 м.
Вид битрейта : Переменный
Битрейт : 4949 Кбит/сек
Максимальный битрейт : 8000 Кбит/сек
Ширина : 720 пикселей
Высота : 576 пикселей
Соотношение сторон : 16:9
Частота кадров : 25,000 кадров/сек
Стандарт вещания : PAL
Цветовое пространство : YUV
Субдискретизация насыщенности : 4:2:0
Битовая глубина : 8 бит
Тип развёртки : Чересстрочная
Порядок развёртки : Верхнее поле первое
Метод сжатия : С потерями
Бит/(Пиксели*Кадры) : 0.477
Размер потока : 931 Мбайт (91%)

Аудио
Идентификатор : 189 (0xBD)-128 (0x80)
Формат : AC-3
Формат/Информация : Audio Coding 3
Расширение режима : CM (complete main)
Параметр Endianness формата : Big
Режим смешивания : DVD-Video
Продолжительность : 26 м.
Вид битрейта : Постоянный
Битрейт : 384 Кбит/сек
Каналы : 6 каналов
Расположение каналов : Front: L C R, Side: L R, LFE
Частота : 48,0 КГц
Битовая глубина : 16 бит
Метод сжатия : С потерями
Задержка видео : -592 мс.
Размер потока : 72,3 Мбайт (7%)

Свернуть


Скриншоты
Скриншот меню
Изображение
Изображение
Свернуть
Изображение
Изображение
Изображение
Изображение
Изображение
Изображение
Изображение
Изображение
Изображение
Изображение
Свернуть

Знаете ли Вы, что...
Роль Эмили вполне могла получить шведская актриса Нуми Рапас, но, не дождавшись старта съемок «Ворона» она ушла в другой детективный проект - «Шерлок Холмс: Игра теней».
На роль Эдгара Аллана По рассматривались Джереми Реннер и Юэн Макгрегор.
Свернуть

Изображение
Не в сети
Профиль  
 Добавлено: 2012-06-03 20:21 (спустя 19 часов)
Стаж: 5 лет 3 месяца
Сообщений: 150
Лайков: 2
Классный фильм!!!
Не в сети
Профиль  
 Добавлено: 2012-06-23 20:40 (спустя 20 дней)
Аватара пользователя
Стаж: 7 лет 6 месяцев
Возраст: 51
Сообщений: 1782
Лайков: 1403
Скушный фильм. Периодически я засыпал, порю просыпался и мучительно пытался вспомнить, о чем идет речь.

Кьюсак - актер вроде бы классической школы, но способный усыпить хоть кого. Он вял и скучен всегда. Кажется, он полагает, что быть вялым и депрессивным - секрет истинной актерской школы. Надеюсь, он навсегда останется во втором эшелоне.

Сюжет - настолько вторичен по отношению к мистеру Эдгару По, что мистер По послал бы его по... Впрочем, вы понимаете куда.

Единственное, что неожиданно оживляет фильм - мистер Люк Эванс. Кажется, что он единственный живой на фоне этих спящих профессионалов, ходящих и в полузабытье отрабатывающих свои реплики. И конец фильма - замечателен, именно за счет Эванса! Он тут лучше всех.

А Кьюсак, кажется, как умер в начале фильма, так до конца его и не воскрес. Впрочем, я говорил об этом. Все его слегка резкие реплики похожи на дрыганье отрезанной лапки лягушки, в которую воткнули провода и пустили ток. Причем, у лапки, может, эмоций даже больше. А хренли вы желаете? А вот пустите по вам ток - посмотрим, что вы изобразите...

Хр... р... р.............

Если вас мучает бессонница - смело включайте "Ворон". Оно лучше любого снотворного.

Хороших вам снов.
Не в сети
Профиль  
 Добавлено: 2012-08-06 21:15 (спустя 1 месяц 13 дней)
Аватара пользователя
Стаж: 9 лет
Сообщений: 167
Спасибок: 38
хороший разказ
Не в сети
Профиль  
Начать новую темуОтветить на тему  [ Сообщений: 4 ] 
Вы не можете начинать темы
Вы не можете отвечать на сообщения
Вы не можете редактировать свои сообщения
Вы не можете удалять свои сообщения