Правила форума

  • В этом разделе создание новых тем Запрещено.
  • Для создания новых тем пользуйтесь Корневым разделом DVD и HD фильмы.
Начать новую темуОтветить на тему  [ Сообщений: 6 ] 
Торрент файл
Размер: 3.95 GB • Зарегистрирован: 5 лет 2 месяца • Статус: Проверено
Скачан: 261 раз • Желающих скачать: 0 • Поблагодарили: 40 раз
 Раздают: 0  |  0 KB/s  ]   Качают: 0  |  0 KB/s  ] 
 Полного источника не было 3 года 2 месяца 
Сообщения
 Добавлено: 2011-09-23 16:16
Аватара пользователя
Стаж: 5 лет 5 месяцев
Возраст: 30
Сообщений: 353
Спасибок: 7455
Вой Банши / Scream of the Banshee

Изображение


Год выпуска: 2011
Страна: США (AfterDark Films)
Слоган: «Она вернулась спустя тысячи лет.»
Жанр: ужасы
Продолжительность: 01:26:24
Перевод: Профессиональный (многоголосый закадровый)
Субтитры: Русские

Режиссёр: Стивен С. Миллер / Steven C. Miller
Сценарист: Энтони Ферранте, Джейкоб Хэйр
Продюсер: Стефани Калеб, Лоурен Ито, Люси Мукерджи
Оператор: Эндрю Стрэхорн, Эмиль Топузов
Композитор: Райан Додсон

В ролях: Моника Акоста, Эрик Ф. Адамс, Марселль Баэр, Эрик Браун, Лиэнн Кохрэн, Томас С. Дэниэл, Лэнс Хенриксен, Гаррет Хайнс

Описание: На адрес калифорнийского университета приходит анонимная посылка с ценной вещицей — рыцарской перчаткой XII века. Пристраивая её на склад, студенты случайно обнаруживают ещё один артефакт тех времён — старый железный ящик, закрытый на хитроумный замок. Обнаружив, что именно таинственная перчатка подходит в качестве ключа, ребята вскрывают ящик и обнаруживают в нём неплохо сохранившуюся голову какого-то зубастого существа. Давным-давно кто-то скрыл от людей опасную тайну, но человеческое любопытство вновь выпускает зло на свободу…

Доп.информация: нет
Рейтинг MPAA: Рейтинг R (Подростки до 17 лет допускаются на фильм только в сопровождении одного из родителей)
Мировая премьера: 26 марта 2011
Бюджет: $2 000 000

Изображение Изображение Изображение

Качество: DVD5 R5
Формат: DVD Video
Видео кодек: MPEG2
Аудио кодек: AC3 (Dolby Digital)
Видео: PAL 16:9 (720x576(0.577)) MPEG Video, 25,000 кадр/сек, 5985 Кбит/сек
Аудио #1: Russian (Dolby AC3, 6 ch) 384 Кбит/сек, 48,0 КГц [Профессиональный (многоголосый закадровый)]
Субтитры: Русские
"DVDInfo"
Title:
Size: 3.95 Gb ( 4 144 790 KBytes ) - DVD-5
Enabled regions: 1, 2, 3, 4, 5, 6, 7, 8

VTS_01 :
Play Length: 00:00:08
Video: PAL 4:3 (720x576) VBR

VTS_02 :
Play Length: 00:00:13
Video: PAL 16:9 (720x576) VBR, Auto Pan&Scan

VTS_03 :
Play Length: 01:26:24
Video: PAL 16:9 (720x576) VBR, Auto Pan&Scan
Audio:
Russian (Dolby AC3, 6 ch)
Subtitles:
Ukrainian

VTS_04 :
Play Length: 00:00:16
Video: PAL 16:9 (720x576) VBR, Auto Pan&Scan
Audio:
English (Dolby AC3, 2 ch)

VTS_05 :
Play Length: 00:00:15
Video: PAL 4:3 (720x576) VBR
Audio:
English (Dolby AC3, 2 ch)
Свернуть

"MediaInfo"
Общее
Полное имя : G:\Новинки 2011\Voj.banshi.2011.DVD5\VIDEO_TS\VTS_03_1.VOB
Формат : MPEG-PS
Размер файла : 1024 Мбайт
Продолжительность : 22 м.
Общий поток : 6498 Кбит/сек

Видео
Идентификатор : 224 (0xE0)
Формат : MPEG Video
Версия формата : Version 2
Профиль формата : Main@Main
Параметр BVOP формата : Да
Параметр матрицы формата : По умолчанию
Параметр GOP формата : M=3, N=15
Продолжительность : 22 м.
Вид битрейта : Переменный
Битрейт : 5985 Кбит/сек
Максимальный битрейт : 8000 Кбит/сек
Ширина : 720 пикселей
Высота : 576 пикселей
Соотношение сторон : 16:9
Частота кадров : 25,000 кадров/сек
Стандарт вещания : PAL
Цветовое пространство : YUV
Субдискретизация насыщенности : 4:2:0
Битовая глубина : 8 бит
Тип развёртки : Прогрессивная
Метод сжатия : С потерями
Бит/(Пиксели*Кадры) : 0.577
Размер потока : 943 Мбайт (92%)

Аудио
Идентификатор : 189 (0xBD)-128 (0x80)
Формат : AC-3
Формат/Информация : Audio Coding 3
Расширение режима : CM (complete main)
Режим смешивания : DVD-Video
Продолжительность : 22 м.
Вид битрейта : Постоянный
Битрейт : 384 Кбит/сек
Каналы : 6 каналов
Расположение каналов : Front: L C R, Side: L R, LFE
Частота : 48,0 КГц
Битовая глубина : 16 бит
Метод сжатия : С потерями
Задержка видео : -80 мс.
Размер потока : 60,5 Мбайт (6%)

Свернуть
Скриншоты
Скриншоты меню
Изображение
Изображение
Изображение
Свернуть
Изображение
Изображение
Изображение
Изображение
Изображение
Изображение
Изображение
Изображение
Свернуть

Изображение Изображение
Не в сети
Профиль  
 Добавлено: 2011-09-23 18:05 (спустя 1 час 48 минут)
Стаж: 7 лет 2 месяца
Сообщений: 4
народ как фильмец стоящий просмотра???? :ne_znayu:
Не в сети
Профиль  
 Добавлено: 2011-09-23 21:36 (спустя 3 часа)
Супермодератор Инквизиции
Аватара пользователя
Стаж: 8 лет 3 месяца
Возраст: 51
Сообщений: 37875
Спасибок: 1089
Лайков: 2725
судя по предпоследнему скрину - трешак :par_don:
_________________
████████████ - сотри монеткой, чтобы получить пароль от этого аккаунта
Пират у копираста спиратил пиастры, копираст у пирата скопипастил фрегат :ps_ih:
Не в сети
Профиль  
 Добавлено: 2011-10-01 12:42 (спустя 7 дней)
Стаж: 6 лет 8 месяцев
Сообщений: 59
Посмотрели, понравилось.
Не в сети
Профиль  
 Добавлено: 2011-10-29 21:47 (спустя 28 дней)
Аватара пользователя
Стаж: 7 лет 8 месяцев
Сообщений: 28
Спасибок: 2
такой ху..ни давно не видел, 1 час 26 минут, 24 секунды потратил зря(((((((((((

Добавлено спустя 41 секунда:
ГОВНО ГОВНО ГОВНО ГОВНО ГОВНО ГОВНОГОВНОГОВНОГОВНОГОВНОГОВНОГОВНОГОВНОГОВНОГОВНОГОВНОГОВНОГОВНОГОВНОГОВНОГОВНОГОВНОГОВНОГОВНО

Добавлено спустя 1 минута:
надо гвоздь в голову режисеру забить!

Добавлено спустя 1 минута:
ГОВНО!!!!!!!!!!!!!!!!!!!!!!!!!!!!!!!!!!!!

Добавлено спустя 2 минуты:
НЕ качайте хуй...ню!

Добавлено спустя 3 минуты:
Посмотрите лучше "Паранормальное явление"
Не в сети
Профиль  
 Добавлено: 2011-10-29 21:53 (спустя 5 минут)
Аватара пользователя
Стаж: 8 лет 1 месяц
Возраст: 27
Сообщений: 1509
Спасибок: 227

ermilys:

такой ху..ни давно не видел, 1 час 26 минут, 24 секунды потратил зря(((((((((((

Добавлено спустя 41 секунда:
***** ***** ***** ***** ***** *****

Добавлено спустя 1 минута:
надо гвоздь в голову режисеру забить!

Добавлено спустя 1 минута:
*****!!!!!!!!!!!!!!!!!!!!!!!!!!!!!!!!!!!!

)))))))))

Ху и есть ху вот так. :-D

Я сразу понял по скриншотам вот я молодец да)

Ну а что снимешь с бюджетом в $2 000 000 только вот эту ху...
Не в сети
Профиль  
Начать новую темуОтветить на тему  [ Сообщений: 6 ] 
Вы не можете начинать темы
Вы не можете отвечать на сообщения
Вы не можете редактировать свои сообщения
Вы не можете удалять свои сообщения