Правила форума

  • В этом разделе создание новых тем Запрещено.
  • Для создания новых тем пользуйтесь Корневым разделом DVD и HD фильмы.
Начать новую темуОтветить на тему  [ Сообщений: 2 ] 
Торрент файл
Размер: 6.35 GB • Зарегистрирован: 3 года 7 месяцев • Статус: Проверено
Скачан: 126 раз • Желающих скачать: 0 • Поблагодарили: 52 раза
 Раздают: 0  |  0 KB/s  ]   Качают: 0  |  0 KB/s  ] 
 Полного источника не было 8 месяцев 
Сообщения
 Добавлено: 2013-04-23 06:58
Руководитель релиз-группы
Аватара пользователя
Стаж: 7 лет 5 месяцев
Возраст: 31
Сообщений: 3406
Спасибок: 46729
Лайков: 5
Изображение

Возвращение героя
The Last Stand


Год выпуска: 2013
Страна: США
Слоган: «Спокойная жизнь не для него»
Жанр: боевик, триллер, криминал
Продолжительность: 01:42:46
Перевод: Профессиональный (полное дублирование) [лицензия]
Режиссер: Ким Чжи Ун
Сценарий: Эндрю Кнауэр
Продюсер: Лоренцо Ди Бонавентура, Эдвард Фи, Мики Ли, Майкл Пасернек, Хернани Перла
Оператор: Джи-ён Ким
Композитор: Моуг
В ролях: Арнольд Шварценеггер, Форест Уитакер, Джонни Ноксвил, Родриго Санторо, Джейми Александр, Луис Гузман, Эдуардо Норьега, Петер Стормаре, Зэк Гилфорд, Генезис Родригез, Сонни Лэндэм, Гарри Дин Стэнтон
Бюджет: $45 000 000
Сборы в мире: $35 183 178
Описание: Самая опасная и жестокая банда наркоторговцев сбегает из-под конвоя ФБР. Прихватив заложника, они мчатся к мексиканской границе на бронированной, оснащенной первоклассным вооружением машине. У них на пути стоит лишь тихий городок, за порядком в котором следит шериф Оуенс. Когда-то он был одним из лучших полицейских Лос-Анджелеса, теперь он вернулся.
Изображение
MPAA: Изображение
Релиз: Изображение Раздача группы: Изображение
Качество: DVD9
Формат: DVD Video
Видео: MPEG2; PAL 16:9 (720x576)
Аудио #1: Dolby AC3, 6 ch, 384 Kbps Russian
Аудио #2: Dolby AC3, 6 ch, 384 Kbps English
Аудио #3: DTS, 6 ch, 768 Kbps Russian
Субтитры: русские
Дополнительно: Смотрите на DVD, Создатели и исполнители, Фотогалерея
DVDInfo
    Title: Vozvrashenie.geroya.2013.D.DVD9
    Size: 6.35 Gb ( 6 661 522,00 KBytes ) - DVD-9
    Enabled regions: 1, 2, 3, 4, 5, 6, 7, 8

    VTS_01 :
    Play Length: 00:00:05
    Video: PAL 4:3 (720x576) VBR
    Subtitles:
    English
    English

    VTS_02 :
    Play Length: 00:00:09
    Video: PAL 16:9 (720x576) VBR, Auto Letterboxed
    Audio:
    Not specified (Dolby AC3, 2 ch)
    Not specified (Dolby AC3, 2 ch)
    Not specified (Dolby AC3, 2 ch)
    Subtitles:
    Not specified

    VTS_03 :
    Play Length: 00:01:59
    Video: PAL 16:9 (720x576) VBR, Auto Letterboxed
    Audio:
    Not specified (Dolby AC3, 2 ch)
    Not specified (Dolby AC3, 2 ch)
    Not specified (Dolby AC3, 2 ch)
    Subtitles:
    Not specified

    VTS_04 :
    Play Length: 00:01:48
    Video: PAL 16:9 (720x576) VBR, Auto Letterboxed
    Audio:
    Not specified (Dolby AC3, 2 ch)
    Not specified (Dolby AC3, 2 ch)
    Not specified (Dolby AC3, 2 ch)
    Subtitles:
    Not specified

    VTS_05 :
    Play Length: 00:02:08
    Video: PAL 16:9 (720x576) VBR, Auto Letterboxed
    Audio:
    Not specified (Dolby AC3, 2 ch)
    Not specified (Dolby AC3, 2 ch)
    Not specified (Dolby AC3, 2 ch)
    Subtitles:
    Not specified

    VTS_06 :
    Play Length: 01:42:46
    Video: PAL 16:9 (720x576) VBR, Auto Letterboxed
    Audio:
    Russian (Dolby AC3, 6 ch)
    English (Dolby AC3, 6 ch)
    Russian (DTS, 5 ch)
    Subtitles:
    Russian

    VTS_07 :
    Play Length: 00:01:49
    Video: PAL 16:9 (720x576) VBR, Auto Letterboxed
    Audio:
    Not specified (Dolby AC3, 2 ch)
    Subtitles:
    Not specified

    VTS_08 :
    Play Length: 00:02:05
    Video: PAL 16:9 (720x576) VBR, Auto Letterboxed
    Audio:
    Not specified (Dolby AC3, 6 ch)
    Subtitles:
    Not specified

    VTS_09 :
    Play Length: 00:01:10
    Video: PAL 16:9 (720x576) VBR, Auto Letterboxed
    Audio:
    Not specified (Dolby AC3, 2 ch)
    Subtitles:
    Not specified

    VTS_10 :
    Play Length: 00:03:19
    Video: PAL 16:9 (720x576) VBR, Auto Letterboxed

    VTS_11 :
    Play Length: 00:01:29
    Video: PAL 16:9 (720x576) VBR, Auto Letterboxed
    Audio:
    Not specified (Dolby AC3, 2 ch)
    Not specified (Dolby AC3, 2 ch)
    Not specified (Dolby AC3, 2 ch)
    Subtitles:
    Not specified
Свернуть
mediainfo
    Формат : MPEG-PS
    Размер файла : 1024 Мбайт
    Продолжительность : 18 м.
    Режим общего битрейта : Переменный
    Общий поток : 7802 Кбит/сек

    Видео
    Идентификатор : 224 (0xE0)
    Формат : MPEG Video
    Версия формата : Version 2
    Профиль формата : Main@Main
    Параметр BVOP формата : Да
    Параметр матрицы формата : По умолчанию
    Параметр GOP формата : M=3, N=12
    Продолжительность : 18 м.
    Вид битрейта : Переменный
    Битрейт : 5996 Кбит/сек
    Максимальный битрейт : 8000 Кбит/сек
    Ширина : 720 пикселей
    Высота : 576 пикселей
    Соотношение сторон : 16:9
    Частота кадров : 25,000 кадров/сек
    Стандарт вещания : PAL
    Цветовое пространство : YUV
    Субдискретизация насыщенности : 4:2:0
    Битовая глубина : 8 бит
    Тип развёртки : Прогрессивная
    Метод сжатия : С потерями
    Бит/(Пиксели*Кадры) : 0.578
    Размер потока : 787 Мбайт (77%)

    Аудио #1
    Идентификатор : 189 (0xBD)-128 (0x80)
    Формат : AC-3
    Формат/Информация : Audio Coding 3
    Расширение режима : CM (complete main)
    Режим смешивания : DVD-Video
    Продолжительность : 18 м.
    Вид битрейта : Постоянный
    Битрейт : 448 Кбит/сек
    Каналы : 6 каналов
    Расположение каналов : Front: L C R, Side: L R, LFE
    Частота : 48,0 КГц
    Битовая глубина : 16 бит
    Метод сжатия : С потерями
    Размер потока : 58,8 Мбайт (6%)

    Аудио #2
    Идентификатор : 189 (0xBD)-129 (0x81)
    Формат : AC-3
    Формат/Информация : Audio Coding 3
    Расширение режима : CM (complete main)
    Режим смешивания : DVD-Video
    Продолжительность : 18 м.
    Вид битрейта : Постоянный
    Битрейт : 448 Кбит/сек
    Каналы : 6 каналов
    Расположение каналов : Front: L C R, Side: L R, LFE
    Частота : 48,0 КГц
    Битовая глубина : 16 бит
    Метод сжатия : С потерями
    Размер потока : 58,8 Мбайт (6%)

    Аудио #3
    Идентификатор : 189 (0xBD)-138 (0x8A)
    Формат : DTS
    Формат/Информация : Digital Theater Systems
    Режим смешивания : DVD-Video
    Продолжительность : 18 м.
    Вид битрейта : Постоянный
    Битрейт : 755 Кбит/сек
    Каналы : 6 каналов
    Расположение каналов : Front: L C R, Side: L R, LFE
    Частота : 48,0 КГц
    Битовая глубина : 24 бит
    Метод сжатия : С потерями
    Размер потока : 99,0 Мбайт (10%)

    Меню

Свернуть
Знаете ли Вы, что...
  • Первая главная роль Арнольда Шварценеггера после фильма «Терминатор 3: Восстание машин» (2003).
  • Первый стих 28-й главы Книги притчей Соломоновых является девизом, выгравированным на мемориальной доске перед ратушей и офисом шерифа.
  • Когда Рэй Оуэнс ведет Chevrolet Camaro ZL1, то на подголовнике хорошо видны вышитые буквы SS. Но эти буквы от другой модели Camaro, и, соответственно, на подголовнике должно быть вышито ZL1.
  • Агент Митчелл упоминает, что Chevrolet Corvette ZR1 быстрее любого вертолета. Однако вертолет ФБР следит за ним с близкого расстояния и практически не отстает.
Свернуть
Скриншоты

меню
Изображение

Изображение

Изображение

Изображение
Свернуть
Изображение

Изображение

Изображение
Свернуть
Не в сети
Профиль  
 Добавлено: 2013-04-23 21:37 (спустя 14 часов)
DVD Release Group
Аватара пользователя
Стаж: 7 лет 10 месяцев
Сообщений: 364
Спасибок: 3090
Лайков: 10
:ya_hoo_oo: :ya_hoo_oo: :ya_hoo_oo: :co_ol:
Не в сети
Профиль  
Начать новую темуОтветить на тему  [ Сообщений: 2 ] 
Вы не можете начинать темы
Вы не можете отвечать на сообщения
Вы не можете редактировать свои сообщения
Вы не можете удалять свои сообщения