Правила форума

  • В этом разделе создание новых тем Запрещено.
  • Для создания новых тем пользуйтесь Корневым разделом DVD и HD фильмы.
Начать новую темуОтветить на тему  [ 1 сообщение ] 
Торрент файл
Размер: 4.37 GB • Зарегистрирован: 3 года 7 месяцев • Статус: Проверено
Скачан: 247 раз • Желающих скачать: 0 • Поблагодарили: 69 раз
 Раздают: 0  |  0 KB/s  ]   Качают: 0  |  0 KB/s  ] 
 Полного источника не было 23 часа 
Сообщения
 Добавлено: 2013-04-23 14:36
DVD Release Group
Аватара пользователя
Стаж: 7 лет 1 месяц
Сообщений: 3559
Спасибок: 247267
Лайков: 1018
Возвращение героя

The Last Stand

«Спокойная жизнь не для него»


Изображение


Год выпуска: 2013
Страна: США
Жанр: Боевик, триллер, криминал
Продолжительность: 01:42:46
Перевод: Профессиональный (полное дублирование)
Cубтитры: Русские
Режиссер: Стивен Фрирз
В ролях: Арнольд Шварценеггер, Форест Уитакер, Джонни Ноксвил, Родриго Санторо, Джейми Александр, Луис Гузман, Эдуардо Норьега, Петер Стормаре, Зэк Гилфорд, Генезис Родригез
Описание: Самая опасная и жестокая банда наркоторговцев сбегает из-под конвоя ФБР. Прихватив заложника, они мчатся к мексиканской границе на бронированной, оснащенной первоклассным вооружением машине. У них на пути стоит лишь тихий городок, за порядком в котором следит шериф Оуенс. Когда-то он был одним из лучших полицейских Лос-Анджелеса, теперь он вернулся.
Изображение
Дополнительно:
Исходник: DVD9 (6.35Гб) [лицензия, PAL 16:9].
Убрано: Русский (DTS), английский языки,заставки и предупреждение.
Сжатие фильма 8,8% сжатия (без учета ручного перераспределения битрейта, за счет большего сжатия конечных титров).
Работоспособность проверена на софтовом плеере Windows Media и бытовом LG.
Sample:
http://multi-up.com/857704
Качество: DVD5 (сжатый)
Формат: DVD Video
Видео кодек: MPEG2
Аудио кодек: AC3
Видео: 720х576 25fps 5576Kbps
Аудио: 48kHz 6ch 448Kbps
"MediaInfo"
Формат : MPEG-PS
Размер файла : 1024 Мбайт
Продолжительность : 23 м.
Режим общего битрейта : Переменный
Общий поток : 6146 Кбит/сек

Видео
Идентификатор : 224 (0xE0)
Формат : MPEG Video
Версия формата : Version 2
Профиль формата : Main@Main
Параметр BVOP формата : Да
Параметр матрицы формата : Выборочная
Продолжительность : 23 м.
Вид битрейта : Переменный
Битрейт : 5576 Кбит/сек
Максимальный битрейт : 8298 Кбит/сек
Ширина : 720 пикселей
Высота : 576 пикселей
Соотношение сторон : 16:9
Частота кадров : 25,000 кадров/сек
Стандарт вещания : PAL
Цветовое пространство : YUV
Субдискретизация насыщенности : 4:2:0
Битовая глубина : 8 бит
Тип развёртки : Прогрессивная
Порядок развёртки : Нижнее поле первое
Метод сжатия : С потерями
Бит/(Пиксели*Кадры) : 0.538
Размер потока : 929 Мбайт (91%)

Аудио
Идентификатор : 189 (0xBD)-128 (0x80)
Формат : AC-3
Формат/Информация : Audio Coding 3
Расширение режима : CM (complete main)
Режим смешивания : DVD-Video
Продолжительность : 23 м.
Вид битрейта : Постоянный
Битрейт : 448 Кбит/сек
Каналы : 6 каналов
Расположение каналов : Front: L C R, Side: L R, LFE
Частота : 48,0 КГц
Битовая глубина : 16 бит
Метод сжатия : С потерями
Размер потока : 74,6 Мбайт (7%)

Текст
Идентификатор : 189 (0xBD)-32 (0x20)
Формат : RLE
Формат/Информация : Run-length encoding
Режим смешивания : DVD-Video

Меню
Свернуть

"Скриншоты"
Изображение
Изображение
Изображение
Изображение
Изображение
Изображение
Свернуть

Раздача группы:
Изображение
В сети
Профиль  
Начать новую темуОтветить на тему  [ 1 сообщение ] 
Вы не можете начинать темы
Вы не можете отвечать на сообщения
Вы не можете редактировать свои сообщения
Вы не можете удалять свои сообщения