Правила форума

  • В этом разделе создание новых тем Запрещено.
  • Для создания новых тем пользуйтесь Корневым разделом DVD и HD фильмы.
Начать новую темуОтветить на тему  [ Сообщений: 6 ] 
Торрент файл
Размер: 5.2 GB • Зарегистрирован: 5 лет • Статус: Проверено
Скачан: 576 раз • Желающих скачать: 0 • Поблагодарили: 88 раз
 Раздают: 0  |  0 KB/s  ]   Качают: 0  |  0 KB/s  ] 
 Полного источника не было 5 часов 
Сообщения
 Добавлено: 2011-12-01 21:40
Аватара пользователя
Стаж: 5 лет 5 месяцев
Возраст: 30
Сообщений: 353
Спасибок: 7455
Время / In Time

Изображение


Год выпуска: 2011
Страна: США (New Regency Pictures, Regency Enterprises, Strike Entertainment)
Слоган: «Живи вечно или умри, пытаясь»
Жанр: фантастика, триллер, драма, мелодрама, криминал
Продолжительность: 01:44:45
Перевод: Профессиональный (дубляж) + Профессиональный (дубляж) + Профессиональный (дубляж)
Субтитры: Русские

Режиссёр: Эндрю Никкол / Andrew Niccol
Сценарист: Эндрю Никкол / Andrew Niccol
Продюсер: Марк Абрахам, Эрик Ньюман, Эндрю Никкол
Оператор: Роджер Дикинс
Композитор: Крэйг Армстронг

В ролях: Джастин Тимберлэйк, Аманда Сайфред, Киллиан Мёрфи, Алекс Петтифер, Шайло Уствальд, Джонни Галэки, Колин МакГерк, Оливия Уайлд, Уилл Харрис, Майкл Уильям Фриман

Описание: Добро пожаловать в мир, где время стало единственной и самой твердой валютой, где люди генетически запрограммированы так, что в 25 лет перестают стареть. Правда, последующие годы стоят денег. И вот богатые становятся практически бессмертными, а бедные, как всегда, обречены сражаться за жизнь.
Уилл, бунтарь из гетто, несправедливо обвинен в убийстве с целью грабежа времени и вынужден, захватив заложницу, пуститься в бега. Так, ежеминутно рискуя жизнью, эти двое становятся грозным оружием в борьбе с системой. Но вот вопрос: кто кого? А может быть, в дело вмешается третья сила?..

Доп.информация: Фотогалерея, киноролики
Мировая премьера: 30 сентября 2011
Премьера в России: 27 октября 2011, «Двадцатый Век Фокс СНГ»
Бюджет: $40 000 000
Кассовые сборы: + $62 000 000 = $97 179 826

Изображение Изображение Изображение

Качество: DVD9 R5
Формат: DVD Video
Видео кодек: MPEG2
Аудио кодек: DTS
Видео: PAL 16:9 (720x576(0.465)) MPEG Video, 25,000 кадр/сек, 4825 Кбит/сек
Аудио #1: Russian (Dolby AC3, 6 ch) 384 Кбит/сек, 48,0 КГц [Профессиональный (дубляж)]
Аудио #2: Russian (DTS, 6 ch) 768 Кбит/сек, 48,0 КГц [Профессиональный (дубляж)]
Аудио #3: Ukrainian (Dolby AC3, 6 ch) 384 Кбит/сек, 48,0 КГц [Профессиональный (дубляж)]
Субтитры: Русские
"DVDInfo"
Title:
Size: 5.20 Gb ( 5 454 432 KBytes ) - DVD-9
Enabled regions: 1, 2, 3, 4, 5, 6, 7, 8

VTS_01 :
Play Length: 01:44:45
Video: PAL 16:9 (720x576) VBR, Auto Pan&Scan
Audio:
Russian (Dolby AC3, 6 ch)
Russian (DTS, 6 ch)
Ukrainian (Dolby AC3, 6 ch)
Subtitles:
Russian
Russian

VTS_02 :
Play Length: 00:00:27
Video: PAL 16:9 (720x576) VBR, Auto Pan&Scan
Audio:
Russian (Dolby AC3, 6 ch)

VTS_03 :
Play Length: 00:01:02
Video: PAL 16:9 (720x576) VBR, Auto Pan&Scan
Audio:
English (Dolby AC3, 2 ch)
Subtitles:
Russian
Ukrainian

VTS_04 :
Play Length: 00:09:15
Video: PAL 16:9 (720x576) VBR, Auto Pan&Scan
Audio:
Not specified (Dolby AC3, 6 ch)
Not specified (Dolby AC3, 6 ch)
Not specified (Dolby AC3, 6 ch)
Russian (Dolby AC3, 2 ch)
Subtitles:
Russian
Russian
Свернуть

"MediaInfo"
Общее
Полное имя : G:\Новинки 2011\Vremya.2011.DVD9\VIDEO_TS\VTS_01_1.VOB
Формат : MPEG-PS
Размер файла : 1024 Мбайт
Продолжительность : 22 м.
Общий поток : 6476 Кбит/сек

Видео
Идентификатор : 224 (0xE0)
Формат : MPEG Video
Версия формата : Version 2
Профиль формата : Main@Main
Параметр BVOP формата : Да
Параметр матрицы формата : Выборочная
Параметр GOP формата : M=2, N=12
Продолжительность : 22 м.
Вид битрейта : Переменный
Битрейт : 4825 Кбит/сек
Максимальный битрейт : 7500 Кбит/сек
Ширина : 720 пикселей
Высота : 576 пикселей
Соотношение сторон : 16:9
Частота кадров : 25,000 кадров/сек
Стандарт вещания : PAL
Цветовое пространство : YUV
Субдискретизация насыщенности : 4:2:0
Битовая глубина : 8 бит
Тип развёртки : Чересстрочная
Порядок развёртки : Верхнее поле первое
Метод сжатия : С потерями
Бит/(Пиксели*Кадры) : 0.465
Размер потока : 763 Мбайт (75%)

Аудио #1
Идентификатор : 189 (0xBD)-128 (0x80)
Формат : AC-3
Формат/Информация : Audio Coding 3
Расширение режима : CM (complete main)
Режим смешивания : DVD-Video
Продолжительность : 22 м.
Вид битрейта : Постоянный
Битрейт : 384 Кбит/сек
Каналы : 6 каналов
Расположение каналов : Front: L C R, Side: L R, LFE
Частота : 48,0 КГц
Битовая глубина : 16 бит
Метод сжатия : С потерями
Размер потока : 60,7 Мбайт (6%)

Аудио #2
Идентификатор : 189 (0xBD)-130 (0x82)
Формат : AC-3
Формат/Информация : Audio Coding 3
Расширение режима : CM (complete main)
Режим смешивания : DVD-Video
Продолжительность : 22 м.
Вид битрейта : Постоянный
Битрейт : 384 Кбит/сек
Каналы : 6 каналов
Расположение каналов : Front: L C R, Side: L R, LFE
Частота : 48,0 КГц
Битовая глубина : 16 бит
Метод сжатия : С потерями
Размер потока : 60,7 Мбайт (6%)

Аудио #3
Идентификатор : 189 (0xBD)-137 (0x89)
Формат : DTS
Формат/Информация : Digital Theater Systems
Режим смешивания : DVD-Video
Продолжительность : 22 м.
Вид битрейта : Постоянный
Битрейт : 755 Кбит/сек
Каналы : 6 каналов
Расположение каналов : Front: L C R, Side: L R, LFE
Частота : 48,0 КГц
Битовая глубина : 24 бит
Метод сжатия : С потерями
Размер потока : 119 Мбайт (12%)

Текст
Идентификатор : 189 (0xBD)-32 (0x20)
Формат : RLE
Формат/Информация : Run-length encoding
Режим смешивания : DVD-Video

Свернуть


Скриншоты
Скриншоты меню
Изображение
Изображение
Изображение
Свернуть
Изображение
Изображение
Изображение
Изображение
Изображение
Свернуть

Знаете ли Вы, что...
Для Роджера Дикинса, оператора картины, ранее использовавшего только пленочные аппараты, «Время» стал первым фильмом, снятым на цифровую камеру.
Свернуть

Изображение
Не в сети
Профиль  
 Добавлено: 2011-12-01 22:04 (спустя 24 минуты)
Аватара пользователя
Стаж: 7 лет
Сообщений: 3240
Спасибок: 15640
Лайков: 2
Оу счет, я вчера в CamRip глянул)) Недождался :hi_hi_hi:
_________________
Изображение
Изображение
Не в сети
Профиль  
 Добавлено: 2011-12-01 22:21 (спустя 17 минут)
Модератор релиз-группы
Аватара пользователя
Стаж: 7 лет 8 месяцев
Возраст: 29
Сообщений: 9789
Спасибок: 23729
Лайков: 103

voovaz:

Перевод: Профессиональный (дубляж) + Профессиональный (дубляж) + Профессиональный (дубляж)
типа три разных дубляжа? ;;-)))
Не в сети
Профиль  
 Добавлено: 2011-12-01 22:30 (спустя 9 минут)
Аватара пользователя
Стаж: 5 лет 5 месяцев
Возраст: 30
Сообщений: 353
Спасибок: 7455

volkov2009:

voovaz:

Перевод: Профессиональный (дубляж) + Профессиональный (дубляж) + Профессиональный (дубляж)
типа три разных дубляжа? ;;-)))
Нет не типа.Два разных.Один Русский а другой Украинский.А то что в шаблоне так я не виноват.
Не в сети
Профиль  
 Добавлено: 2011-12-01 22:52 (спустя 21 минута)
Руководитель релиз-группы
Аватара пользователя
Стаж: 7 лет 4 месяца
Возраст: 31
Сообщений: 3407
Спасибок: 46728
Лайков: 5
DVD5
Не в сети
Профиль  
 Добавлено: 2011-12-09 14:59 (спустя 7 дней)
Аватара пользователя
Стаж: 7 лет 1 месяц
Сообщений: 60
Оригинальный сюжет :men:
Не в сети
Профиль  
Начать новую темуОтветить на тему  [ Сообщений: 6 ] 
Вы не можете начинать темы
Вы не можете отвечать на сообщения
Вы не можете редактировать свои сообщения
Вы не можете удалять свои сообщения