Правила форума

  • В этом разделе создание новых тем Запрещено.
  • Для создания новых тем пользуйтесь Корневым разделом DVD и HD фильмы.
Начать новую темуОтветить на тему  [ Сообщений: 5 ] 
Торрент файл
Размер: 4.37 GB • Зарегистрирован: 4 года 1 месяц • Статус: Проверено
Скачан: 555 раз • Желающих скачать: 0 • Поблагодарили: 149 раз
 Раздают: 0  |  0 KB/s  ]   Качают: 0  |  0 KB/s  ] 
 Полного источника не было 20 дней 
Сообщения
 Добавлено: 2012-11-04 08:36
DVD Release Group
Аватара пользователя
Стаж: 7 лет 1 месяц
Сообщений: 3563
Спасибок: 247494
Лайков: 1020
Вспомнить всё

Total Recall

«Ты то, что ты помнишь»


Изображение


Год выпуска: 2012
Страна: США
Жанр: Фантастика, боевик, триллер, приключения
Продолжительность: 01:53:26
Перевод: Профессиональный (полное дублирование)
Субтитры: Русские, английские, арабские, болгарские, хорватские, чешские, эстонские, греческие, иврит, венгерские, исландские, литовские, польские, португальские, румынские, сербские, словацкие, словенские, турецкие
Режиссер: Лен Уайзман
В ролях: Колин Фаррелл, Кейт Бекинсейл, Джессика Бил, Брайан Крэнстон, Джон Чо, Билл Найи, Букем Вудбайн, Уилл Юн Ли, Милтон Барнс, Джеймс Макгоун
Описание: Он — обычный рабочий-строитель, живущий в маленькой квартирке в захудалом районе города будущего где-то в Новой Азии. Хотя собственная жизнь его в целом устраивает, он не может избавиться от чувства, что ему хочется чего-то большего. Потребность в новых будоражащих впечатлениях приводит его в офис компании «Вспомнить всё», имплантирующей в память своих клиентов воспоминания-фантазии, которые они могут получить не рискуя при этом пережить сами события в реальности. Пока герой выбирает, какие именно воспоминания ему приобрести, отряд спецназа штурмует комнату, где он находится, и уже было берет его под арест. К своему собственному удивлению, он молниеносно уничтожает весь отряд при помощи невероятных бойцовских навыков, о владении которыми он и не подозревал…
Кинопоиск: 6.4 (17684)
IMDb: 6.30 (38305)
Дополнительно:
Исходник: DVD9 (7.17Гб) [лицензия, PAL 16:9].
Убрано: Реклама, лишние звуки, бонусы и пред. надписи.
Сжатие фильма 4,1% сжатия (без учета ручного перераспределения битрейта, за счет большего сжатия конечных титров).
Работоспособность проверена на софтовом плеере Windows Media и бытовом LG.
Качество: DVD5 (сжатый)
Формат: DVD Video
Видео кодек: MPEG2
Аудио кодек: AC3
Видео: 720x576 25fps 4973kbps
Аудио: 48kHz 6ch 384Kbps
"MediaInfo"
Формат : MPEG-PS
Размер файла : 1024 Мбайт
Продолжительность : 26 м.
Режим общего битрейта : Переменный
Общий поток : 5466 Кбит/сек

Видео
Идентификатор : 224 (0xE0)
Формат : MPEG Video
Версия формата : Version 2
Профиль формата : Main@Main
Параметр BVOP формата : Да
Параметр матрицы формата : Выборочная
Продолжительность : 26 м.
Вид битрейта : Переменный
Битрейт : 4973 Кбит/сек
Максимальный битрейт : 9800 Кбит/сек
Ширина : 720 пикселей
Высота : 576 пикселей
Соотношение сторон : 16:9
Частота кадров : 25,000 кадров/сек
Стандарт вещания : PAL
Цветовое пространство : YUV
Субдискретизация насыщенности : 4:2:0
Битовая глубина : 8 бит
Тип развёртки : Чересстрочная
Порядок развёртки : Верхнее поле первое
Метод сжатия : С потерями
Бит/(Пиксели*Кадры) : 0.480
Размер потока : 932 Мбайт (91%)

Аудио
Идентификатор : 189 (0xBD)-132 (0x84)
Формат : AC-3
Формат/Информация : Audio Coding 3
Расширение режима : CM (complete main)
Режим смешивания : DVD-Video
Продолжительность : 26 м.
Вид битрейта : Постоянный
Битрейт : 384 Кбит/сек
Каналы : 6 каналов
Расположение каналов : Front: L C R, Side: L R, LFE
Частота : 48,0 КГц
Битовая глубина : 16 бит
Метод сжатия : С потерями
Размер потока : 71,9 Мбайт (7%)

Меню
Свернуть

"Скриншоты"
Изображение
Изображение
Изображение
Изображение
Изображение
Изображение
Изображение
Свернуть

Раздача группы:
Изображение


Последний раз редактировалось rastor 2012-11-07 06:47, всего редактировалось 2 раз(а).
Не в сети
Профиль  
 Добавлено: 2012-11-04 08:58 (спустя 22 минуты)
Аватара пользователя
Стаж: 9 лет
Сообщений: 167
Спасибок: 38
давай блюху
Не в сети
Профиль  
 Добавлено: 2012-11-05 09:42 (спустя 1 день)
Аватара пользователя
Стаж: 6 лет 10 месяцев
Возраст: 38
Сообщений: 43
когда hd-то? ну очень хочется!
Не в сети
Профиль  
 Добавлено: 2012-11-05 21:54 (спустя 12 часов)
Стаж: 5 лет 3 месяца
Сообщений: 150
Лайков: 2
Фильм просто огонь!
Не в сети
Профиль  
 Добавлено: 2012-11-07 08:42 (спустя 1 день 10 часов)
Модератор
Аватара пользователя
Стаж: 6 лет 10 месяцев
Возраст: 33
Сообщений: 5908
Спасибок: 61260
Лайков: 3540

shek152:

когда hd-то? ну очень хочется!
на этой неделе будет.
_________________
ИзображениеИзображение Изображение
Изображение
Не в сети
Профиль  
Начать новую темуОтветить на тему  [ Сообщений: 5 ] 
Вы не можете начинать темы
Вы не можете отвечать на сообщения
Вы не можете редактировать свои сообщения
Вы не можете удалять свои сообщения