Правила форума

  • В этом разделе создание новых тем Запрещено.
  • Для создания новых тем пользуйтесь Корневым разделом DVD и HD фильмы.
Начать новую темуОтветить на тему  [ 1 сообщение ] 
Торрент файл
Размер: 4.31 GB • Зарегистрирован: 4 года 4 месяца • Статус: Проверено
Скачан: 23 раза • Желающих скачать: 0 • Поблагодарили: 9 раз
 Раздают: 0  |  0 KB/s  ]   Качают: 0  |  0 KB/s  ] 
 Полного источника не было 2 года 7 месяцев 
Сообщения
 Добавлено: 2012-07-11 06:47
DVD Release Group
Аватара пользователя
Стаж: 7 лет 1 месяц
Сообщений: 3541
Спасибок: 246633
Лайков: 1016
Встречный ветер

Des vents contraires


Изображение


Год выпуска: 2011
Страна: Франция, Бельгия
Жанр: Драма, детектив
Продолжительность: 01:28:06
Перевод: Профессиональный (многоголосый, закадровый)
Субтитры: Русские
Режиссер: Джалиль Леспер
В ролях: Бенуа Мажимель, Изабелль Карре, Антуан Дюлери, Рамзи Бедиа, Боли Ланнерс, Мари-Анж Каста, Одри Тоту, Даниэль Дюваль, Лубна Азабаль, Аврора Клеман
Описание: Жизнь писателя Поля полностью меняется, когда его жена Сара исчезает. После года безуспешных поисков он оказывается совершенно разбитым человеком, измученным сомнениями и чувством вины. Его последний шанс это начать жизнь с чистого листа. Вместе с детьми Поль возвращается в город своего детства Сен-Мало. Однако неожиданная встреча там придаст его планам совершенно непредвиденный поворот.
Кинопоиск: 6.6 (256)
IMDb: 6.1 (183)
Дополнительно:
Исходник: DVD9 (6.46Гб) [лицензия, PAL 16:9].
Убрано: Смотрите на DVD, Russian (Dolby AC3, 2 ch), заставки и предупреждение.
Сжатие фильма 30% сжатия (без учета ручного перераспределения битрейта, за счет большего сжатия конечных титров).
Работоспособность проверена на софтовом плеере Windows Media и бытовом LG.
Качество: DVD5 (сжатый)
Формат: DVD Video
Видео кодек: MPEG2
Аудио кодек: AC3
Видео: 720х576 25fps 6178Kbps
Аудио:
Аудио Rus: 48kHz 6ch 384Kbps
Аудио Fra: 48kHz 6ch 384Kbps
"MediaInfo"
Формат : MPEG-PS
Размер файла : 1024 Мбайт
Продолжительность : 20 м.
Режим общего битрейта : Переменный
Общий поток : 7087 Кбит/сек

Видео
Идентификатор : 224 (0xE0)
Формат : MPEG Video
Версия формата : Version 2
Профиль формата : Main@Main
Параметр BVOP формата : Да
Параметр матрицы формата : Выборочная
Продолжительность : 20 м.
Вид битрейта : Переменный
Битрейт : 6178 Кбит/сек
Максимальный битрейт : 8904 Кбит/сек
Ширина : 720 пикселей
Высота : 576 пикселей
Соотношение сторон : 16:9
Частота кадров : 25,000 кадров/сек
Стандарт вещания : PAL
Цветовое пространство : YUV
Субдискретизация насыщенности : 4:2:0
Битовая глубина : 8 бит
Тип развёртки : Чересстрочная
Порядок развёртки : Верхнее поле первое
Метод сжатия : С потерями
Бит/(Пиксели*Кадры) : 0.596
Размер потока : 893 Мбайт (87%)

Аудио #1
Идентификатор : 189 (0xBD)-128 (0x80)
Формат : AC-3
Формат/Информация : Audio Coding 3
Расширение режима : CM (complete main)
Режим смешивания : DVD-Video
Продолжительность : 20 м.
Вид битрейта : Постоянный
Битрейт : 384 Кбит/сек
Каналы : 6 каналов
Расположение каналов : Front: L C R, Side: L R, LFE
Частота : 48,0 КГц
Битовая глубина : 16 бит
Метод сжатия : С потерями
Размер потока : 55,5 Мбайт (5%)

Аудио #2
Идентификатор : 189 (0xBD)-130 (0x82)
Формат : AC-3
Формат/Информация : Audio Coding 3
Расширение режима : CM (complete main)
Режим смешивания : DVD-Video
Продолжительность : 20 м.
Вид битрейта : Постоянный
Битрейт : 384 Кбит/сек
Каналы : 6 каналов
Расположение каналов : Front: L C R, Side: L R, LFE
Частота : 48,0 КГц
Битовая глубина : 16 бит
Метод сжатия : С потерями
Размер потока : 55,5 Мбайт (5%)

Меню
Свернуть

"Скриншоты"
Изображение
Изображение
Изображение
Изображение
Изображение
Изображение
Изображение
Изображение
Изображение
Свернуть

Раздача группы:
Изображение
Не в сети
Профиль  
Начать новую темуОтветить на тему  [ 1 сообщение ] 
Вы не можете начинать темы
Вы не можете отвечать на сообщения
Вы не можете редактировать свои сообщения
Вы не можете удалять свои сообщения