Правила форума

  • В этом разделе создание новых тем Запрещено.
  • Для создания новых тем пользуйтесь Корневым разделом DVD и HD фильмы.
Начать новую темуОтветить на тему  [ Сообщений: 5 ] 
Торрент файл
Размер: 4.36 GB • Зарегистрирован: 5 лет 6 месяцев • Статус: Проверено
Скачан: 56 раз • Желающих скачать: 0 • Поблагодарили: 16 раз
 Раздают: 0  |  0 KB/s  ]   Качают: 0  |  0 KB/s  ] 
 Полного источника не было 3 года 2 месяца 
Сообщения
 Добавлено: 2011-05-18 22:03
Модератор
Аватара пользователя
Стаж: 8 лет 1 месяц
Возраст: 20
Сообщений: 32130
Спасибок: 98566
Лайков: 80
Я – Четвертый

I Am Number Four

«Трое уже мертвы... Он – четвертый...»


Изображение


Год выпуска: 2011
Страна: США, DreamWorks SKG
Жанр: Фантастика, боевик, триллер
Продолжительность: 01:49:34
Перевод: Профессиональный (полное дублирование) Лицензия
Режиссер: Ди Джей Каруз
Сценарий: Альфред Гоф, Майлз Миллар, Марти Ноксон
Продюсер: Майкл Бэй, Крис Бендер, Эмили Бергер
Оператор: Гильермо Наварро
Композитор: Тревор Рэбин
Художник: Том Саутуэлл, Дуглас Камминг, Джон Б. Джосселин
Монтаж: Винс Филиппоне, Джим Пейдж
В ролях: Алекс Петтифер, Тимоти Олифант, Тереза Палмер, Дианна Агрон, Каллэн МакОлиффи, Кевин Дюран, Джэйк Абель, Джефф Хочендонер, Патрик Сибис, Грег Таунлей
Описание: Обычный с виду подросток Джон Смит на самом деле — один из последних выживших обитателей далекой планеты. Джон вынужден скрываться от страшных врагов, посланных уничтожить его, ему приходится менять имена, постоянно переезжая с места на место со своим опекуном Генри. В разных городках и в разных школах Джон всегда был новичком без прошлого, но однажды он нашел место, которое смог назвать домом: в маленьком городке в Огайо Джон встретил свою любовь. Теперь ему предстоит открыть в себе уникальные способности, сразиться с древними и страшными врагами своего народа и осознать свое удивительное предназначение.


Доп. информация
Премьера (мир): 17 февраля 2011
Премьера (РФ): 24 февраля 2011, «WDSSPR»
Релиз на DVD: 24 мая 2011, «Уолт Дисней Компани СНГ»
Релиз на Blu-Ray: 24 мая 2011, «Уолт Дисней Компани СНГ»
Свернуть

Кинопоиск: 6.569 (9250)
IMDb: 6.20 (20794)
Качество: DVD5(сжатый) R5
Формат: DVD Video
Видеокодек: MPEG-2
Bидео: PAL 16:9 (720x576), ~ 5635 Кбит/сек
Аудио №1: AC3, 384 Кбит/сек, 6 ch - Русский Дублированный Лицензия
изготовление релиза
Сделано: из DVD9 с помощью DVDRemake Pro, Лично!
Видео Не Сжато За Счет: Удалены все Допы, Предупреждения, Финальные Титры, и Английская, Украинская и Итальянская звуковые дорожки, и Итальянские, Литовские, Латвийские, Эстонские субтитры! Ненужные кнопки в меню выключены! Выбор языка меню в попыхах оставил, но это ни на чем не отражается просто жмите русский, хотя есть статичное английское, итальянское и украинское впридачу!
Проверено: Windows Media Player и VLC media player!
Записано: на DVD5-RW болванку программой ImgBurn и проверено через DVD-ROM на компе, на Комбо TOSHIBA 32DV703R и Бытовом Плеере LG DC600W!
Свернуть
MediaInfo
Общее
Полное имя : D:\I_Am_Number_Four_2011_DVD5\VIDEO_TS\VTS_01_4.VOB
Формат : MPEG-PS
Размер файла : 1024 Мбайт
Продолжительность : 22 м.
Общий поток : 6417 Кбит/сек

Видео
Идентификатор : 224 (0xE0)
Формат : MPEG Video
Версия формата : Version 2
Профиль формата : Main@Main
Параметр BVOP формата : Да
Параметр матрицы формата : По умолчанию
Продолжительность : 22 м.
Вид битрейта : Переменный
Битрейт : 5905 Кбит/сек
Номинальный битрейт : 9800 Кбит/сек
Ширина : 720 пикс.
Высота : 576 пикс.
Соотношение сторон : 16:9
Частота кадров : 25,000 кадр/сек
Стандарт вещания : PAL
Цветовое пространство : YUV
Подвыборка цветности : 4:2:0
Битовая глубина : 8 бит
Тип развёртки : Чересстрочная
Порядок развёртки : Верхнее поле первое
Метод сжатия : С потерями
Бит/(Пиксели*Кадры) : 0.570
Размер потока : 942 Мбайт (92%)

Аудио
Идентификатор : 189 (0xBD)-130 (0x82)
Формат : AC-3
Формат/Информация : Audio Coding 3
Расширение режима : CM (complete main)
Режим смешивания : DVD-Video
Продолжительность : 22 м.
Вид битрейта : Постоянный
Битрейт : 384 Кбит/сек
Канал(ы) : 6 канала(ов)
Расположение каналов : Front: L C R, Side: L R, LFE
Частота : 48,0 КГц
Битовая глубина : 16 бит
Метод сжатия : С потерями
Задержка видео : -512 мс.
Размер потока : 61,3 Мбайт (6%)

Текст #1
Идентификатор : 189 (0xBD)-32 (0x20)
Формат : RLE
Формат/Информация : Run-length encoding
Режим смешивания : DVD-Video
Задержка видео : -512 мс.

Текст #2
Идентификатор : 189 (0xBD)-33 (0x21)
Формат : RLE
Формат/Информация : Run-length encoding
Режим смешивания : DVD-Video
Продолжительность : 22 м.
Задержка видео : 360 мс.

Текст #3
Идентификатор : 189 (0xBD)-35 (0x23)
Формат : RLE
Формат/Информация : Run-length encoding
Режим смешивания : DVD-Video
Задержка видео : 360 мс.

Текст #4
Идентификатор : 189 (0xBD)-39 (0x27)
Формат : RLE
Формат/Информация : Run-length encoding
Режим смешивания : DVD-Video
Задержка видео : 360 мс.

Текст #5
Идентификатор : 189 (0xBD)-43 (0x2B)
Формат : RLE
Формат/Информация : Run-length encoding
Режим смешивания : DVD-Video
Задержка видео : 360 мс.

Текст #6
Идентификатор : 189 (0xBD)-44 (0x2C)
Формат : RLE
Формат/Информация : Run-length encoding
Режим смешивания : DVD-Video
Продолжительность : 22 м.
Задержка видео : 360 мс.

Текст #7
Идентификатор : 189 (0xBD)-46 (0x2E)
Формат : RLE
Формат/Информация : Run-length encoding
Режим смешивания : DVD-Video
Задержка видео : 360 мс.

Текст #8
Идентификатор : 189 (0xBD)-50 (0x32)
Формат : RLE
Формат/Информация : Run-length encoding
Режим смешивания : DVD-Video
Задержка видео : 360 мс.

Меню
Свернуть

Скриншоты
Изображение
Изображение
Изображение
Изображение
Изображение
Изображение
Изображение
Свернуть
Не в сети
Профиль  
 Добавлено: 2011-05-18 22:22 (спустя 18 минут)
Аватара пользователя
Стаж: 8 лет 3 месяца
Возраст: 43
Сообщений: 3290
Спасибок: 21012
Лайков: 3
еще есть время отфотошопить меню :)
_________________
Изображение
Не в сети
Профиль  
 Добавлено: 2011-05-18 22:23 (спустя 1 минута)
Модератор
Аватара пользователя
Стаж: 8 лет 1 месяц
Возраст: 20
Сообщений: 32130
Спасибок: 98566
Лайков: 80
Не мой релиз, с другого сайта ))
Не в сети
Профиль  
 Добавлено: 2011-05-18 22:28 (спустя 5 минут)
Аватара пользователя
Стаж: 8 лет 3 месяца
Возраст: 43
Сообщений: 3290
Спасибок: 21012
Лайков: 3

Костян236:

Сделано: из DVD9 с помощью DVDRemake Pro, Лично!
а я было подумал :hi_hi_hi:
Но это очень поспешный релиз. Я его оставляю, но прилеплять не буду :par_don:
Пи. Си.
На раздаче пока нет никого :)
_________________
Изображение
Не в сети
Профиль  
 Добавлено: 2011-05-18 22:37 (спустя 8 минут)
Модератор
Аватара пользователя
Стаж: 8 лет 1 месяц
Возраст: 20
Сообщений: 32130
Спасибок: 98566
Лайков: 80
Чувак на сидбоксе херишует зайцев+1 16гб, я некст )
Не в сети
Профиль  
Начать новую темуОтветить на тему  [ Сообщений: 5 ] 
Вы не можете начинать темы
Вы не можете отвечать на сообщения
Вы не можете редактировать свои сообщения
Вы не можете удалять свои сообщения