Правила форума

  • В этом разделе создание новых тем Запрещено.
  • Для создания новых тем пользуйтесь Корневым разделом DVD и HD фильмы.
Начать новую темуОтветить на тему  [ 1 сообщение ] 
Торрент файл
Размер: 4 GB • Зарегистрирован: 5 лет 1 месяц • Статус: Проверено
Скачан: 319 раз • Желающих скачать: 0 • Поблагодарили: 52 раза
 Раздают: 0  |  0 KB/s  ]   Качают: 0  |  0 KB/s  ] 
 Полного источника не было 3 года 1 месяц 
Сообщения
 Добавлено: 2011-10-18 20:26
Аватара пользователя
Стаж: 5 лет 5 месяцев
Возраст: 30
Сообщений: 353
Спасибок: 7455
Я не знаю, как она делает это / I Don't Know How She Does It

Изображение


Год выпуска: 2011
Страна: США (The Weinstein Company LLC)
Слоган: «Мужчинам это не по зубам»
Жанр: комедия
Продолжительность: 01:25:49
Перевод: Профессиональный (дубляж) + Оригинальная звуковая дорожка
Субтитры: Украинские

Режиссёр: Дуглас МакГрат / Douglas McGrath
Сценарист: Алин Брош МакКенна
Продюсер: Донна Джильотти, Алин Брош МакКенна, Скотт Фергюсон
Оператор: Стюарт Драйбёрг
Композитор: Аарон Зигман

В ролях: Сара Джессика Паркер, Пирс Броснан, Грег Киннер, Кристина Хендрикс, Келси Грэммер, Сет Майерс, Оливия Манн, Джейн Куртин, Марк Блум, Бизи Филиппс
Описание: Кейт — фондовый менеджер и мать двоих детей. В отличие от мужчин, которые не могут делать два дела одновременно, Кейт сразу может делать сто: менять пеленки, продавать и покупать акции, выяснять отношения с мужем, отбиваться от тупого босса и много чего еще. Жизнь Кейт — это череда смешных, неловких и нелепых ситуаций, в которые она постоянно попадает в попытках втиснуть две жизни в одну. Превосходная комедия, после которой многие женщины задумаются о переменах в своей жизни, а мужчины посмотрят на своих подруг по-другому.

Доп.информация: нет
Рейтинг MPAA: Рейтинг PG-13 (Дети до 13 лет допускаются на фильм только с родителями)
Мировая премьера: 15 сентября 2011
Премьера в России: 15 сентября 2011, «Top Film Distribution»
Бюджет: $24 000 000
Кассовые сборы: + $11 649 018 = $21 219 498

Изображение Изображение Изображение

Качество: DVD5 R5
Формат: DVD Video
Видео кодек: MPEG2
Аудио кодек: AC3 (Dolby Digital)
Видео: PAL 16:9 (720x576(0.482)) MPEG Video, 25,000 кадр/сек, 4997 Кбит/сек
Аудио #1: Russian (Dolby AC3, 6 ch) 448 Кбит/сек, 48,0 КГц [Профессиональный (дубляж)]
Аудио #2: English (Dolby AC3, 6 ch) 448 Кбит/сек, 48,0 КГц [Оригинальная звуковая дорожка]
Субтитры: Украинские

"DVDInfo"
Title: F
Size: 4.00 Gb ( 4 196 884 KBytes ) - DVD-5
Enabled regions: 1, 2, 3, 4, 5, 6, 7, 8

VTS_01 :
Play Length: 00:00:08
Video: PAL 4:3 (720x576) VBR

VTS_02 :
Play Length: 00:00:13
Video: PAL 16:9 (720x576) VBR, Auto Letterboxed

VTS_03 :
Play Length: 01:25:49
Video: PAL 16:9 (720x576) VBR, Auto Letterboxed
Audio:
Russian (Dolby AC3, 6 ch)
English (Dolby AC3, 6 ch)
Subtitles:
Ukrainian

VTS_04 :
Play Length: 00:02:31
Video: PAL 16:9 (720x576) VBR, Auto Letterboxed
Audio:
English (Dolby AC3, 6 ch)
Subtitles:
English

VTS_05 :
Play Length: 00:00:49
Video: PAL 16:9 (720x576) VBR, Auto Letterboxed
Audio:
English (Dolby AC3, 6 ch)
Subtitles:
English

VTS_06 :
Play Length: 00:01:57
Video: PAL 16:9 (720x576) VBR, Auto Letterboxed
Audio:
English (LinearPCM, 2 ch)

VTS_07 :
Play Length: 00:00:04
Video: PAL 16:9 (720x576) VBR, Auto Letterboxed
Audio:
Russian (LinearPCM, 1 ch)
English (LinearPCM, 1 ch)
Subtitles:
English

VTS_08 :
Play Length: 00:00:20
Video: PAL 4:3 (720x576) VBR
Audio:
Russian (Dolby AC3, 2 ch)
English (Dolby AC3, 2 ch)
Subtitles:
English

VTS_09 :
Play Length: 00:00:04
Video: PAL 16:9 (720x576) VBR, Auto Letterboxed
Audio:
Russian (LinearPCM, 1 ch)
English (LinearPCM, 1 ch)
Subtitles:
English

VTS_10 :
Play Length: 00:00:04
Video: PAL 16:9 (720x576) VBR, Auto Letterboxed
Audio:
Russian (LinearPCM, 1 ch)
English (LinearPCM, 1 ch)
Subtitles:
English

Свернуть

"MediaInfo"
Общее
Полное имя : G:\Новинки 2011\Ja.ne.znaju.kak.ona.delaet.jeto.2011.DVD5\VIDEO_TS\VTS_03_1.VOB
Формат : MPEG-PS
Размер файла : 1024 Мбайт
Продолжительность : 23 м.
Общий поток : 6013 Кбит/сек

Видео
Идентификатор : 224 (0xE0)
Формат : MPEG Video
Версия формата : Version 2
Профиль формата : Main@Main
Параметр BVOP формата : Да
Параметр матрицы формата : Выборочная
Продолжительность : 23 м.
Вид битрейта : Переменный
Битрейт : 4997 Кбит/сек
Максимальный битрейт : 8000 Кбит/сек
Ширина : 720 пикселей
Высота : 576 пикселей
Соотношение сторон : 16:9
Частота кадров : 25,000 кадров/сек
Стандарт вещания : PAL
Цветовое пространство : YUV
Субдискретизация насыщенности : 4:2:0
Битовая глубина : 8 бит
Тип развёртки : Чересстрочная
Порядок развёртки : Верхнее поле первое
Метод сжатия : С потерями
Бит/(Пиксели*Кадры) : 0.482
Размер потока : 851 Мбайт (83%)

Аудио #1
Идентификатор : 189 (0xBD)-128 (0x80)
Формат : AC-3
Формат/Информация : Audio Coding 3
Расширение режима : CM (complete main)
Режим смешивания : DVD-Video
Продолжительность : 23 м.
Вид битрейта : Постоянный
Битрейт : 448 Кбит/сек
Каналы : 6 каналов
Расположение каналов : Front: L C R, Side: L R, LFE
Частота : 48,0 КГц
Битовая глубина : 16 бит
Метод сжатия : С потерями
Размер потока : 76,3 Мбайт (7%)

Аудио #2
Идентификатор : 189 (0xBD)-129 (0x81)
Формат : AC-3
Формат/Информация : Audio Coding 3
Расширение режима : CM (complete main)
Режим смешивания : DVD-Video
Продолжительность : 23 м.
Вид битрейта : Постоянный
Битрейт : 448 Кбит/сек
Каналы : 6 каналов
Расположение каналов : Front: L C R, Side: L R, LFE
Частота : 48,0 КГц
Битовая глубина : 16 бит
Метод сжатия : С потерями
Размер потока : 76,3 Мбайт (7%)

Текст
Идентификатор : 189 (0xBD)-32 (0x20)
Формат : RLE
Формат/Информация : Run-length encoding
Режим смешивания : DVD-Video
Свернуть

Скриншоты
Скриншоты меню
Изображение
Изображение
Изображение
Свернуть
Изображение
Изображение
Изображение
Изображение
Изображение
Изображение
Изображение
Изображение
Свернуть


Изображение Изображение
Не в сети
Профиль  
Начать новую темуОтветить на тему  [ 1 сообщение ] 
Вы не можете начинать темы
Вы не можете отвечать на сообщения
Вы не можете редактировать свои сообщения
Вы не можете удалять свои сообщения