Правила форума

  • В этом разделе создание новых тем Запрещено.
  • Для создания новых тем пользуйтесь Корневым разделом DVD и HD фильмы.
Начать новую темуОтветить на тему  [ Сообщений: 6 ] 
Торрент файл
Размер: 4.37 GB • Зарегистрирован: 5 лет 2 месяца • Статус: Проверено
Скачан: 111 раз • Желающих скачать: 0 • Поблагодарили: 21 раз
 Раздают: 0  |  0 KB/s  ]   Качают: 0  |  0 KB/s  ] 
 Полного источника не было 6 месяцев 
Сообщения
 Добавлено: 2011-10-07 08:39
Аватара пользователя
Стаж: 8 лет 3 месяца
Возраст: 43
Сообщений: 3290
Спасибок: 21012
Лайков: 3
Я видел Дьявола / Akmareul boatda

Изображение

Год выпуска: 2010
Страна: Корея Южная
Слоган: «Зло живет внутри»

Жанр: триллер, драма, криминал
Продолжительность: 02:23:53
Перевод: Профессиональный (многоголосый, закадровый)

Режиссер: Ким Чжи Ун / Ji-woon Kim
Сценарий: Hoon-jung Park
Продюсер: Hyun-woo Kim, Kee-young Cheong, Kil-soo Kim, Грег Мун / Greg Moon, Jae-sik Moon
Оператор: Mogae Lee
Композитор: Mowg

Изображение
Ли Бён Хон (Kim Soo-hyeon), Мин-Сик Чои (Kyung-chul), Гук-хван Чон (Squad Chief Jang), Ho-jin Jeon (Section Chief Oh), San-ha Oh (Joo-yeon), Yoon-seo Kim (Se-yeon)
Сборы в США: $129 210
Сборы в России: $8 901
Сборы в мире: $12 773 990

Мировая премьера: 12 августа 2010
Изображение
Специальный агент полиции идет по следу серийного убийцы, убившего его невесту, которая ждала ребенка. Желание мести стало для несчастного целью его жизни. При этом он совершенно не задумывается о средствах в ее достижении - стирается граница между добром и злом, льется кровь, в любую минуту охотник сам может стать жертвой.
Изображение
Изображение
Качество: DVD9
Формат: MPEG-PS
Видео: MPEG-2 Video; 720x576 (16:9); 3582 Kbps; 25 fps; 0,346 bpp
Аудио: AC3; 448 Kbps; CBR; 6 ch Русский
Субтиры: Русские
Исходник удалено: Все допы, Корейский язык. (кнопки в меню затёрты). Меню статичное.
Редактирование происходило с помощью: DVDRemake Pro; Adobe Photoshop CS; MuxMan; DVD Rebuilder + CCE/Procoder + AVISYNTH. Сжатие 25%, конечные титры 50%. 5 проходов
Проверено на софтовом плеере CyberLink PowerDVD 10 и на бытовом AKAI
Релиз: Изображение
"Знаете ли Вы, что..."
  • Съемки проходили в Мок-дон, окрестностях Сеула, Южная Корея.
Свернуть
"MediaInfo"

Общее
Полное имя : D:\DEMUX !!!\Ja.videl.djavola.2010.P.DVD5.DVDRG\VIDEO_TS\VTS_16_2.VOB
Формат : MPEG-PS
Размер файла : 1024 Мбайт
Продолжительность : 34 м.
Режим общего битрейта : Переменный
Общий поток : 4198 Кбит/сек

Видео
Идентификатор : 224 (0xE0)
Формат : MPEG Video
Версия формата : Version 2
Профиль формата : Main@Main
Параметр BVOP формата : Да
Параметр матрицы формата : Выборочная
Продолжительность : 34 м.
Вид битрейта : Переменный
Битрейт : 3666 Кбит/сек
Максимальный битрейт : 9000 Кбит/сек
Ширина : 720 пикселей
Высота : 576 пикселей
Соотношение сторон : 16:9
Частота кадров : 25,000 кадров/сек
Стандарт вещания : PAL
Цветовое пространство : YUV
Субдискретизация насыщенности : 4:2:0
Битовая глубина : 8 бит
Тип развёртки : Прогрессивная
Порядок развёртки : Нижнее поле первое
Метод сжатия : С потерями
Бит/(Пиксели*Кадры) : 0.354
Размер потока : 894 Мбайт (87%)

Аудио
Идентификатор : 189 (0xBD)-128 (0x80)
Формат : AC-3
Формат/Информация : Audio Coding 3
Расширение режима : CM (complete main)
Режим смешивания : DVD-Video
Продолжительность : 34 м.
Вид битрейта : Постоянный
Битрейт : 448 Кбит/сек
Каналы : 6 каналов
Расположение каналов : Front: L C R, Side: L R, LFE
Частота : 48,0 КГц
Битовая глубина : 16 бит
Метод сжатия : С потерями
Задержка видео : -504 мс.
Размер потока : 109 Мбайт (11%)
Меню
Свернуть
"DVDInfo"

Title: Ja.videl.djavola.2010.P.DVD5.DVDRG
Size: 4.37 Gb ( 4 586 128,00 KBytes ) - DVD-5
Enabled regions: 1, 2, 3, 4, 5, 6, 7, 8

VTS_01 :
Play Length: 00:00:15
Video: PAL 4:3 (720x576) VBR
Audio:
Not specified (Dolby AC3, 2 ch)

VTS_02 :
Play Length: 00:00:08
Video: PAL 16:9 (720x576) VBR, Auto Letterboxed
Audio:
Not specified (Dolby AC3, 2 ch)

VTS_03 :
Play Length: 00:00:09
Video: PAL 16:9 (720x576) VBR, Auto Letterboxed
Audio:
Not specified (Dolby AC3, 2 ch)

VTS_04 :
Play Length: 00:00:00
Video: PAL 4:3 (720x576) VBR
Audio:
Not specified (Dolby AC3, 2 ch)

VTS_05 :
Play Length: 00:00:00
Video: PAL 16:9 (720x576) VBR, Auto Letterboxed
Audio:
Not specified (Dolby AC3, 2 ch)

VTS_06 :
Play Length: 00:00:00
Video: PAL 16:9 (720x576) VBR, Auto Letterboxed
Audio:
Not specified (Dolby AC3, 2 ch)

VTS_07 :
Play Length: 00:00:00
Video: PAL 16:9 (720x576) VBR, Auto Letterboxed
Audio:
Not specified (Dolby AC3, 2 ch)

VTS_08 :
Play Length: 00:00:00
Video: PAL 4:3 (720x576) VBR
Audio:
Not specified (Dolby AC3, 2 ch)

VTS_09 :
Play Length: 00:00:00
Video: PAL 16:9 (720x576) VBR, Auto Letterboxed
Audio:
Not specified (Dolby AC3, 2 ch)

VTS_10 :
Play Length: 00:00:00
Video: PAL 4:3 (720x576) VBR
Audio:
Not specified (Dolby AC3, 2 ch)

VTS_11 :
Play Length: 00:00:00
Video: PAL 4:3 (720x576) VBR
Audio:
Not specified (Dolby AC3, 2 ch)

VTS_12 :
Play Length: 00:00:00
Video: PAL 4:3 (720x576) VBR
Audio:
Not specified (Dolby AC3, 2 ch)

VTS_13 :
Play Length: 00:00:00
Video: PAL 16:9 (720x576) VBR, Auto Letterboxed
Audio:
Not specified (Dolby AC3, 2 ch)

VTS_14 :
Play Length: 00:00:00
Video: PAL 4:3 (720x576) VBR
Audio:
Not specified (Dolby AC3, 2 ch)

VTS_15 :
Play Length: 00:00:00
Video: PAL 16:9 (720x576) VBR, Auto Letterboxed
Audio:
Not specified (Dolby AC3, 2 ch)

VTS_16 :
Play Length: 02:23:53
Video: PAL 16:9 (720x576) VBR, Auto Letterboxed
Audio:
Russian (Dolby AC3, 6 ch)
Subtitles:
Russian


Свернуть
"Скриншоты"
"Меню"
Изображение
Изображение
Изображение
Свернуть
Изображение
Изображение
Изображение
Изображение
Изображение
Свернуть

Изображение
_________________
Изображение
Не в сети
Профиль  
 Добавлено: 2011-10-09 21:50 (спустя 2 дня 13 часов)
Аватара пользователя
Стаж: 6 лет 9 месяцев
Сообщений: 92
очень тяжелый фильм......самое главное ,ведь эти уроды есть и в нашей жизни, как земля носит таких тварей.
Не в сети
Профиль  
 Добавлено: 2012-06-23 22:07 (спустя 8 месяцев)
Стаж: 7 лет 9 месяцев
Сообщений: 19
Тяжелые сцены в фильме - не для детей
Не в сети
Профиль  
 Добавлено: 2013-01-18 10:05 (спустя 6 месяцев)
Стаж: 5 лет 10 месяцев
Сообщений: 15
Спасибо! Впечатляющий фильм! Жаль его близких,но по-моему так и надо поступать с такими нелюдями!
Не в сети
Профиль  
 Добавлено: 2013-02-08 19:32 (спустя 21 день)
Стаж: 8 лет 3 месяца
Сообщений: 16
Парни! Встаньте на раздачу, плиз! :'( :'( :'( :'( :'( :'( :'( :'( :'( :'(
Не в сети
Профиль  
 Добавлено: 2013-02-08 20:50 (спустя 1 час 17 минут)
Стаж: 8 лет 3 месяца
Сообщений: 16
Пипл пришел! О-е! :co_ol: :co_ol: :co_ol: :co_ol: :co_ol: :co_ol: :co_ol: :co_ol: :co_ol: :co_ol:
Не в сети
Профиль  
Начать новую темуОтветить на тему  [ Сообщений: 6 ] 
Вы не можете начинать темы
Вы не можете отвечать на сообщения
Вы не можете редактировать свои сообщения
Вы не можете удалять свои сообщения