Правила форума

  • В этом разделе создание новых тем Запрещено.
  • Для создания новых тем пользуйтесь Корневым разделом DVD и HD фильмы.
Начать новую темуОтветить на тему  [ Сообщений: 6 ] 
Торрент файл
Размер: 4.36 GB • Зарегистрирован: 6 лет 1 месяц • Статус: Проверено
Скачан: 220 раз • Желающих скачать: 0 • Поблагодарили: 34 раза
 Раздают: 0  |  0 KB/s  ]   Качают: 0  |  0 KB/s  ] 
 Полного источника не было 3 года 2 месяца 
Сообщения
 Добавлено: 2010-11-04 22:15
Руководитель релиз-группы
Аватара пользователя
Стаж: 7 лет 5 месяцев
Возраст: 31
Сообщений: 3406
Спасибок: 46729
Лайков: 5
Изображение

Ярость
Rampage


Год выпуска: 2009
Страна: Германия, Канада
Жанр: боевик, триллер, драма, криминал
Продолжительность: 01:16:42
Перевод: Профессиональный (многоголосый, закадровый) [лицензия]
Режиссер: Уве Болл
Сценарий: Уве Болл
Продюсер: Уве Болл, Дэн Кларк, Брендан Флетчер
Оператор: Матиас Нойманн
Композитор: Джессика Де Руйи
В ролях: Брендан Флетчер, Шон Сайпос, Майкл Паре, Мэтт Фрюэр, Линда Бойд, Роберт Кларк, Малкольм Стюарт, Кэти Грэйс, Лори Брунетти...

Описание: Билл Уильямсон - обычный парень из тихого американского городка. Но в «один прекрасный день» он «вооружается до зубов» и выходит на улицу. Билл с упорством настоящего маньяка истребляет жителей города, полагая, что все они виновны в мировых политико-экономических катаклизмах, о которых каждый день говорят в новостях по телевизору... Эффект реалистичности происходящего усиливает съемка трясущейся камерой и повествование от лица убийцы.
Изображение
Раздача группы: Изображение
Качество: DVD5
Формат: DVD Video
Видео: MPEG2; PAL 16:9 (720x576)
Аудио #1: Dolby AC3, 6 ch, 448 Kbps Russian
Аудио #2: Dolby AC3, 6 ch, 448 Kbps English
Субтитры: русские
Дополнительно : Смотрите на DVD, cоздатели и исполнители, фотогалерея
Изображение
mediainfo
    Format : MPEG-PS
    File size : 16.5 MiB
    Duration : 15s 0ms
    Overall bit rate : 9 233 Kbps
    Video #224
    ID : 224 (0xE0)
    Format : MPEG Video
    Format version : Version 2
    Format profile : Main@Main
    Format settings, BVOP : Yes
    Format settings, Matrix : Default
    Duration : 15s 0ms
    Bit rate mode : Constant
    Bit rate : 8 000 Kbps
    Width : 720 pixels
    Height : 576 pixels
    Display aspect ratio : 16:9
    Frame rate : 25.000 fps
    Standard : PAL
    Color space : YUV
    Chroma subsampling : 4:2:0
    Bit depth : 8 bits
    Scan type : Progressive
    Bits/(Pixel*Frame) : 0.772
    Stream size : 13.8 MiB (83%)
    Audio #128
    ID : 128 (0x80)
    Format : AC-3
    Format/Info : Audio Coding 3
    Mode extension : CM (complete main)
    Duration : 14s 944ms
    Bit rate mode : Constant
    Bit rate : 448 Kbps
    Channel(s) : 6 channels
    Channel positions : Front: L C R, Side: L R, LFE
    Sampling rate : 48.0 KHz
    Bit depth : 16 bits
    Video delay : -80ms
    Stream size : 817 KiB (5%)
    Audio #129
    ID : 129 (0x81)
    Format : AC-3
    Format/Info : Audio Coding 3
    Mode extension : CM (complete main)
    Duration : 14s 944ms
    Bit rate mode : Constant
    Bit rate : 448 Kbps
    Channel(s) : 6 channels
    Channel positions : Front: L C R, Side: L R, LFE
    Sampling rate : 48.0 KHz
    Bit depth : 16 bits
    Video delay : -80ms
    Stream size : 817 KiB (5%)
    Audio #130
    ID : 130 (0x82)
    Format : AC-3
    Format/Info : Audio Coding 3
    Mode extension : CM (complete main)
    Duration : 14s 944ms
    Bit rate mode : Constant
    Bit rate : 448 Kbps
    Channel(s) : 6 channels
    Channel positions : Front: L C R, Side: L R, LFE
    Sampling rate : 48.0 KHz
    Bit depth : 16 bits
    Video delay : -80ms
    Stream size : 817 KiB (5%)
    Text #32
    ID : 32 (0x20)
    Format : RLE
    Format/Info : Run-length encoding
    Video delay : 640ms
Свернуть
Скриншоты

меню
Изображение
Изображение
Изображение
Изображение
Свернуть
Изображение
Изображение
Изображение
Изображение
Свернуть
Не в сети
Профиль  
 Добавлено: 2010-11-04 22:39 (спустя 24 минуты)
Аватара пользователя
Стаж: 8 лет 3 месяца
Возраст: 43
Сообщений: 3290
Спасибок: 21012
Лайков: 3
Режиссер отличный :co_ol: :hi_hi_hi:
_________________
Изображение
Не в сети
Профиль  
 Добавлено: 2010-11-04 22:42 (спустя 3 минуты)
Руководитель релиз-группы
Аватара пользователя
Стаж: 7 лет 5 месяцев
Возраст: 31
Сообщений: 3406
Спасибок: 46729
Лайков: 5

Иванишко:

Режиссер отличный :co_ol: :hi_hi_hi:
:a_g_a: и фильм неплохой :-D
Не в сети
Профиль  
 Добавлено: 2010-11-05 10:10 (спустя 11 часов)
Стаж: 6 лет 2 месяца
Сообщений: 1
:sh_ok:
Не в сети
Профиль  
 Добавлено: 2010-11-09 22:02 (спустя 4 дня)
Аватара пользователя
Стаж: 7 лет 9 месяцев
Сообщений: 81
Спасибок: 40
Какие то скрины неудачные. Ни одного боевиковского. Как кино то?
Не в сети
Профиль  
 Добавлено: 2012-06-27 01:17 (спустя 1 год 7 месяцев)
Аватара пользователя
Стаж: 8 лет 9 месяцев
Возраст: 27
Сообщений: 157
Спасибок: 21
Фильм пустой! И зачем такое снимать.
Не в сети
Профиль  
Начать новую темуОтветить на тему  [ Сообщений: 6 ] 
Вы не можете начинать темы
Вы не можете отвечать на сообщения
Вы не можете редактировать свои сообщения
Вы не можете удалять свои сообщения