Правила форума

  • В этом разделе создание новых тем Запрещено.
  • Для создания новых тем пользуйтесь Корневым разделом DVD и HD фильмы.
Начать новую темуОтветить на тему  [ 1 сообщение ] 
Торрент файл
Размер: 4.37 GB • Зарегистрирован: 3 года 9 месяцев • Статус: Проверено
Скачан: 105 раз • Желающих скачать: 0 • Поблагодарили: 27 раз
 Раздают: 0  |  0 KB/s  ]   Качают: 0  |  0 KB/s  ] 
 Полного источника не было 1 месяц 4 дня 
Сообщения
 Добавлено: 2013-02-10 08:01
DVD Release Group
Аватара пользователя
Стаж: 7 лет 1 месяц
Сообщений: 3568
Спасибок: 247639
Лайков: 1020
Заложница 2

Taken 2


Изображение


Год выпуска: 2012
Страна: Франция, Canal+
Жанр: Боевик, триллер, драма, криминал
Продолжительность: 01:28:00
Перевод: Профессиональный (полное дублирование)
Cубтитры: Русские
Режиссер: Оливье Мегатон
В ролях: Лиам Нисон, Мэгги Грэйс, Фамке Янссен, Лиленд Орсер, Джон Грайз, Д.Б. Суини, Люк Граймс, Раде Шербеджия, Кеворк Маликян, Ален Фиглаж
Описание: Брайану Миллсу придется расхлебывать последствия своих действий. Спасая свою дочь, он убил главаря банды, у которого — сюрприз! — есть отец по имени Мурад. Мурад жаждет отмщения и описывается как человек, отдающий приказы, но сам никогда никому не подчиняющийся. Мурад берет в заложники Миллса с супругой, и тут уже Ким Миллс нужно будет спасать своих родителей.
Изображение
Дополнительно:
Исходник: DVD9 (6.65Гб) [лицензия, PAL 16:9].
Убрано: анонсы, Russian (DTS, 6 ch), заставки и предупреждение.
Сжатие фильма 11% сжатия (без учета ручного перераспределения битрейта, за счет большего сжатия конечных титров).
Работоспособность проверена на софтовом плеере Windows Media и бытовом LG.
Sample:
http://multi-up.com/829316
Качество: DVD5 (сжатый)
Формат: DVD Video
Видео кодек: MPEG2
Аудио кодек: AC3
Видео: 720x576 25fps 5898Kbps
Аудио:
Аудио Rus: 48kHz 6ch 448Kbps
Аудио Eng: 48kHz 2ch 384Kbps
"DVDInfo"
Title: Bob
Size: 4.37 Gb ( 4 581 318 KBytes ) - DVD-5
Enabled regions: 1, 2, 3, 4, 5, 6, 7, 8

VTS_01 :
Play Length:
Video: PAL 4:3 (720x576) VBR
Audio:
English (Dolby AC3, 2 ch)

VTS_02 :
Play Length:
Video: PAL 16:9 (720x576) VBR, Auto Pan&Scan
Audio:
English (MPEG1, 2 ch)

VTS_03 :
Play Length:
Video: PAL 16:9 (720x576) VBR, Auto Pan&Scan
Audio:
Russian (Dolby AC3, 6 ch)
Russian (Dolby AC3, 6 ch)
English (Dolby AC3, 6 ch)

VTS_04 :
Play Length: 01:28:00
Video: PAL 16:9 (720x576) VBR, Auto Pan&Scan
Audio:
Russian (Dolby AC3, 6 ch)
Russian (DTS, 6 ch)
English (Dolby AC3, 2 ch)
Subtitles:
Russian

VTS_05 :
Play Length:
Video: PAL 16:9 (720x576) VBR, Auto Pan&Scan
Audio:
Russian (LinearPCM, 2 ch)

VTS_06 :
Play Length:
Video: PAL 16:9 (720x576) VBR, Auto Pan&Scan
Audio:
Russian (LinearPCM, 2 ch)

VTS_07 :
Play Length:
Video: PAL 16:9 (720x576) VBR, Auto Pan&Scan
Audio:
Russian (LinearPCM, 2 ch)

VTS_08 :
Play Length:
Video: PAL 16:9 (720x576) VBR, Auto Pan&Scan
Audio:
Russian (LinearPCM, 2 ch)

VTS_09 :
Play Length:
Video: PAL 16:9 (720x576) VBR, Auto Pan&Scan
Audio:
Russian (LinearPCM, 2 ch)

VTS_10 :
Play Length:
Video: PAL 16:9 (720x576) VBR, Auto Pan&Scan
Audio:
Russian (LinearPCM, 2 ch)

VTS_11 :
Play Length:
Video: PAL 16:9 (720x576) VBR, Auto Pan&Scan
Audio:
Russian (LinearPCM, 2 ch)

VTS_12 :
Play Length:
Video: PAL 16:9 (720x576) VBR, Auto Pan&Scan
Audio:
Russian (LinearPCM, 2 ch)

VTS_13 :
Play Length:
Video: PAL 16:9 (720x576) VBR, Auto Pan&Scan
Audio:
Russian (LinearPCM, 2 ch)
Свернуть

"MediaInfo"
Формат : MPEG-PS
Размер файла : 1024 Мбайт
Продолжительность : 20 м.
Режим общего битрейта : Переменный
Общий поток : 6867 Кбит/сек
Библиотека кодирования : encoded by TMPGEnc (ver. 2.524.63.181)

Видео
Идентификатор : 224 (0xE0)
Формат : MPEG Video
Версия формата : Version 2
Профиль формата : Main@Main
Параметр BVOP формата : Да
Параметр матрицы формата : Выборочная
Продолжительность : 20 м.
Вид битрейта : Переменный
Битрейт : 5898 Кбит/сек
Ширина : 720 пикселей
Высота : 576 пикселей
Соотношение сторон : 16:9
Частота кадров : 25,000 кадров/сек
Стандарт вещания : PAL
Цветовое пространство : YUV
Субдискретизация насыщенности : 4:2:0
Битовая глубина : 8 бит
Тип развёртки : Прогрессивная
Порядок развёртки : Нижнее поле первое
Метод сжатия : С потерями
Бит/(Пиксели*Кадры) : 0.569
Размер потока : 879 Мбайт (86%)
Библиотека кодирования : TMPGEnc 2.524.63.181
Основные цвета : BT.470-2 System B, BT.470-2 System G
Характеристики трансфера : BT.470-2 System B, BT.470-2 System G
Коэффициенты матрицы : BT.470-2 System B, BT.470-2 System G

Аудио #1
Идентификатор : 189 (0xBD)-128 (0x80)
Формат : AC-3
Формат/Информация : Audio Coding 3
Расширение режима : CM (complete main)
Режим смешивания : DVD-Video
Продолжительность : 20 м.
Вид битрейта : Постоянный
Битрейт : 448 Кбит/сек
Каналы : 6 каналов
Расположение каналов : Front: L C R, Side: L R, LFE
Частота : 48,0 КГц
Битовая глубина : 16 бит
Метод сжатия : С потерями
Задержка видео : -221 мс.
Размер потока : 66,8 Мбайт (7%)

Аудио #2
Идентификатор : 189 (0xBD)-130 (0x82)
Формат : AC-3
Формат/Информация : Audio Coding 3
Расширение режима : CM (complete main)
Режим смешивания : DVD-Video
Продолжительность : 20 м.
Вид битрейта : Постоянный
Битрейт : 384 Кбит/сек
Каналы : 2 канала
Расположение каналов : Front: L R
Частота : 48,0 КГц
Битовая глубина : 16 бит
Метод сжатия : С потерями
Задержка видео : -221 мс.
Размер потока : 57,3 Мбайт (6%)

Текст #1
Идентификатор : 189 (0xBD)-33 (0x21)
Формат : RLE
Формат/Информация : Run-length encoding
Режим смешивания : DVD-Video

Текст #2
Идентификатор : 189 (0xBD)-34 (0x22)
Формат : RLE
Формат/Информация : Run-length encoding
Режим смешивания : DVD-Video

Меню
Свернуть

"Скриншоты"
Изображение
Изображение
Изображение
Изображение
Изображение
Изображение
Изображение
Изображение
Изображение
Свернуть

Раздача группы:
Изображение
Не в сети
Профиль  
Начать новую темуОтветить на тему  [ 1 сообщение ] 
Вы не можете начинать темы
Вы не можете отвечать на сообщения
Вы не можете редактировать свои сообщения
Вы не можете удалять свои сообщения