Правила форума

  • В этом разделе создание новых тем Запрещено.
  • Для создания новых тем пользуйтесь Корневым разделом DVD и HD фильмы.
Начать новую темуОтветить на тему  [ Сообщений: 5 ] 
Торрент файл
Размер: 4.35 GB • Зарегистрирован: 4 года 6 месяцев • Статус: Проверено
Скачан: 467 раз • Желающих скачать: 0 • Поблагодарили: 102 раза
 Раздают: 0  |  0 KB/s  ]   Качают: 0  |  0 KB/s  ] 
 Полного источника не было 5 часов 
Сообщения
 Добавлено: 2012-05-26 20:52
Руководитель релиз-группы
Аватара пользователя
Стаж: 7 лет 4 месяца
Возраст: 31
Сообщений: 3407
Спасибок: 46728
Лайков: 5
Изображение

Защитник
Safe


Год выпуска: 2012
Страна: США
Слоган: «Он - её единственный шанс. Она - его последняя надежда.»
Жанр: боевик, криминал
Продолжительность: 01:30:22
Перевод: Профессиональный (полное дублирование)
Режиссер: Боаз Якин
Сценарий: Боаз Якин
Продюсер: Лоуренс Бендер, Дэна Брунетти, Стив Чэсмэн
Оператор: Стефан Чапски
Композитор: Марк Мазерсбо
В ролях: Джейсон Стэйтем, Катрин Чан, Роберт Джон Бёрк, Джеймс Хонг, Энсон Маунт, Крис Сарандон, Сандор Текси, Джозеф Сикора, Игорь Жижикин, Регги Ли
Бюджет: $30 000 000
Описание: Бывший агент элитных спецслужб спасает девочку с уникальными способностями из цепких лап Нью-Йоркской мафии. Она - единственная, кто знает код от сейфа, где хранятся миллионы долларов китайских Триад. И теперь только профессионал может защитить ее от мафии, азиатских ассасинов и коррумпированных полицейских. На улицах Нью-Йорка развернется погоня за девочкой, которой очень повезло с Защитником...
Изображение
MPAA: Изображение
Релиз: Изображение Раздача группы: Изображение
Качество: DVD5 (сжатый)
Формат: DVD Video
Видео: MPEG2; PAL 16:9 (720x576)
Аудио: Dolby AC3, 6 ch, 448 Kbps Russian
Субтитры: нет
Дополнительная информация :
Исходник : DVD9 (6.15 Гб) [лицензия, PAL 16:9]
Убрано : допы (кроме "Создатели и исполнители"), реклама, заставки, предупреждения, Russian (DTS, 5 ch)
Сжатие фильма : 12 % сжатия (без учета ручного перераспределения битрейта, за счет большего сжатия конечных титров)
использовались программы
    DVDRemakePro
    Photoshop
    MuxMan
    Rebuilder и CCE (Cinema Craft Encoder), 5 проходов
    Работоспособность проверена на софтовом плеере Windows Media и бытовом LG
Свернуть
DVDInfo
    Title: Zashitnik_2012_DVD5.[R.G.Daredevil]
    Size: 4.35 Gb ( 4 564 980,00 KBytes ) - DVD-5
    Enabled regions: 1, 2, 3, 4, 5, 6, 7, 8

    VTS_01 :
    Play Length: 00:00:00
    Video: PAL 4:3 (720x576) VBR
    Subtitles:
    English
    English

    VTS_02 :
    Play Length: 00:00:00
    Video: PAL 16:9 (720x576) VBR, Auto Letterboxed
    Audio:
    Not specified (Dolby AC3, 2 ch)

    VTS_03 :
    Play Length: 00:00:00
    Video: PAL 16:9 (720x576) VBR, Auto Letterboxed
    Audio:
    Not specified (Dolby AC3, 2 ch)
    Not specified (Dolby AC3, 2 ch)
    Subtitles:
    Not specified

    VTS_04 :
    Play Length: 01:30:22
    Video: PAL 16:9 (720x576) VBR, Auto Letterboxed
    Audio:
    Russian (Dolby AC3, 6 ch)

    VTS_05 :
    Play Length: 00:00:00
    Video: PAL 16:9 (720x576) VBR, Auto Letterboxed
    Audio:
    Not specified (Dolby AC3, 2 ch)
    Subtitles:
    Not specified

    VTS_06 :
    Play Length: 00:00:00
    Video: PAL 16:9 (720x576) VBR, Auto Letterboxed
    Audio:
    Not specified (Dolby AC3, 2 ch)
    Not specified (Dolby AC3, 2 ch)
    Not specified (Dolby AC3, 2 ch)
    Subtitles:
    Not specified

    VTS_07 :
    Play Length: 00:00:00
    Video: PAL 16:9 (720x576) VBR, Auto Letterboxed
    Audio:
    Not specified (Dolby AC3, 6 ch)
    Subtitles:
    Not specified

    VTS_08 :
    Play Length: 00:00:00
    Video: PAL 16:9 (720x576) VBR, Auto Letterboxed
    Audio:
    Not specified (Dolby AC3, 2 ch)
    Subtitles:
    Not specified

    VTS_09 :
    Play Length: 00:00:00
    Video: PAL 16:9 (720x576) VBR, Auto Letterboxed
    Audio:
    Not specified (Dolby AC3, 2 ch)
    Not specified (Dolby AC3, 2 ch)
    Subtitles:
    Not specified

    VTS_10 :
    Play Length: 00:00:00
    Video: PAL 16:9 (720x576) VBR, Auto Letterboxed
Свернуть
mediainfo
    Формат : MPEG-PS
    Размер файла : 1024 Мбайт
    Продолжительность : 19 м.
    Режим общего битрейта : Переменный
    Общий поток : 7339 Кбит/сек

    Видео
    Идентификатор : 224 (0xE0)
    Формат : MPEG Video
    Версия формата : Version 2
    Профиль формата : Main@Main
    Параметр BVOP формата : Да
    Параметр матрицы формата : Выборочная
    Продолжительность : 19 м.
    Вид битрейта : Переменный
    Битрейт : 6745 Кбит/сек
    Максимальный битрейт : 8305 Кбит/сек
    Ширина : 720 пикселей
    Высота : 576 пикселей
    Соотношение сторон : 16:9
    Частота кадров : 25,000 кадров/сек
    Стандарт вещания : PAL
    Цветовое пространство : YUV
    Субдискретизация насыщенности : 4:2:0
    Битовая глубина : 8 бит
    Тип развёртки : Прогрессивная
    Порядок развёртки : Нижнее поле первое
    Метод сжатия : С потерями
    Бит/(Пиксели*Кадры) : 0.651
    Размер потока : 941 Мбайт (92%)

    Аудио
    Идентификатор : 189 (0xBD)-128 (0x80)
    Формат : AC-3
    Формат/Информация : Audio Coding 3
    Расширение режима : CM (complete main)
    Режим смешивания : DVD-Video
    Продолжительность : 19 м.
    Вид битрейта : Постоянный
    Битрейт : 448 Кбит/сек
    Каналы : 6 каналов
    Расположение каналов : Front: L C R, Side: L R, LFE
    Частота : 48,0 КГц
    Битовая глубина : 16 бит
    Метод сжатия : С потерями
    Размер потока : 62,5 Мбайт (6%)

    Меню
Свернуть
Скриншоты

меню
Изображение
Изображение
Изображение
Свернуть
Изображение
Изображение
Изображение
Изображение
Свернуть
Не в сети
Профиль  
 Добавлено: 2012-05-28 19:44 (спустя 1 день 22 часа)
Аватара пользователя
Стаж: 4 года 10 месяцев
Возраст: 37
Сообщений: 56
Лайков: 6
спасибо за фильм
Не в сети
Профиль  
 Добавлено: 2012-05-29 13:32 (спустя 17 часов)
Аватара пользователя
Стаж: 7 лет 1 месяц
Сообщений: 60
спс за фильм
Не в сети
Профиль  
 Добавлено: 2012-05-30 11:03 (спустя 21 час)
Аватара пользователя
Стаж: 7 лет 5 месяцев
Сообщений: 17
Спасибок: 3
норм физьмец, можно посмотреть. спасибо
Не в сети
Профиль  
 Добавлено: 2012-08-01 18:38 (спустя 2 месяца 2 дня)
Стаж: 5 лет 7 месяцев
Сообщений: 14
Сейчас заценим.
Не в сети
Профиль  
Начать новую темуОтветить на тему  [ Сообщений: 5 ] 
Вы не можете начинать темы
Вы не можете отвечать на сообщения
Вы не можете редактировать свои сообщения
Вы не можете удалять свои сообщения