Правила форума

  • В этом разделе создание новых тем Запрещено.
  • Для создания новых тем пользуйтесь Корневым разделом DVD и HD фильмы.
Начать новую темуОтветить на тему  [ Сообщений: 5 ] 
Торрент файл
Размер: 4.36 GB • Зарегистрирован: 5 лет 1 месяц • Статус: Проверено
Скачан: 2090 раз • Желающих скачать: 0 • Поблагодарили: 121 раз
 Раздают: 0  |  0 KB/s  ]   Качают: 0  |  0 KB/s  ] 
 Полного источника не было 1 год 
Сообщения
 Добавлено: 2011-10-19 01:34
Руководитель релиз-группы
Аватара пользователя
Стаж: 7 лет 5 месяцев
Возраст: 31
Сообщений: 3406
Спасибок: 46729
Лайков: 5
Изображение

Зеленый фонарь
Green Lantern


Год выпуска: 2011
Страна: США
Слоган: «Во тьме ночной, при свете дня...»
Жанр: фантастика, фэнтези, боевик, триллер, приключения
Продолжительность: 01:49:20
Перевод: Профессиональный (полное дублирование)
Режиссер: Мартин Кэмпбелл
Сценарий: Грег Берланти, Майкл Грин, Марк Гуггенхайм
Продюсер: Грег Берланти, Дональд Де Лайн, Херб Гейнс
Оператор: Дион Биби
Композитор: Джеймс Ньютон Ховард
В ролях: Райан Рейнольдс, Блейк Лайвли, Питер Сарсгаард, Марк Стронг, Анджела Бассетт, Тим Роббинс, Джей О. Сэндерс, Джон Тенни, Темуэра Моррисон, Таика Вайтити
Бюджет: $200 000 000
Сборы в мире: $219 901 172
Описание: Во Вселенной, столь же бесконечной, сколь и загадочной, многие века существовал отряд воинов, обладающих огромной силой. Защитники мира и справедливости, их называют Корпус Зеленых Фонарей. Братство воинов, поклявшихся защищать межгалактический закон, где каждый из них носит кольцо, дарующее ему сверхспособности. Но когда новый враг по имени Параллакс угрожает нарушить равновесие во Вселенной, их судьба и судьба Земли оказывается в руках новобранца, первого человека в истории отряда - Хэла Джордана.
Хэл - дерзкий и талантливый летчик-испытатель, но Зеленые Фонари не испытывают доверия и уважения к человечеству, ведь людям до этого ни разу не удалось обуздать безграничную силу кольца. Но Хэл - как недостающий кусочек мозаики, и вместе с решимостью и силой воли он обладает тем, чего не было ни у одного звездного воителя, - человечностью. Если при поддержке напарника и подруги детства Кэрол Феррис (Блейк Лайвли) Хэл сможет быстро научиться управлять мощью кольца и найдет мужество преодолеть свои страхи, он сможет не только доказать, что он является ключом к победе над Параллаксом... но и станет величайшим Зеленым Фонарем из всех.
Изображение
MPAA: Изображение
Релиз: Изображение Раздача группы: Изображение
Качество: DVD5 (сжатый)
Формат: DVD Video
Видео: MPEG2; PAL 16:9 (720x576)
Аудио #1: Dolby AC3, 6 ch, 384 Kbps Russian
Аудио #2: Dolby AC3, 6 ch, 384 Kbps English
Субтитры: English, Estonian, Latvian, Lithuanian, Polish, Russian
Дополнительная информация :
Исходник : DVD9 (7.87 Гб) [лицензия, PAL 16:9]
Убрано : реклама, заставки, предупреждения, Polish (Dolby AC3, 6 ch), Ukrainian (Dolby AC3, 6 ch)
Сжатие фильма : нет, сжимались финальные титры на 75 %
Раздача релиза на других ресурсах, с указанием авторства, приветствуется
Изображение
использовались программы
    DVDRemakePro
    Photoshop
    MuxMan
    Rebuilder и CCE (Cinema Craft Encoder), 5 проходов
    Работоспособность проверена на софтовом плеере Windows Media и бытовом LG
Свернуть
DVDInfo
    Title: Zelenyi.fonar_2011_DVD5.[R.G.Daredevil]
    Size: 4.36 Gb ( 4 571 366,00 KBytes ) - DVD-5
    Enabled regions: 1, 2, 3, 4, 5, 6, 7, 8

    VTS_01 :
    Play Length: 01:49:20+00:00:00
    Video: PAL 16:9 (720x576) VBR, Auto Letterboxed
    Audio:
    English (Dolby AC3, 6 ch)
    Polish (Dolby AC3, 6 ch)
    Russian (Dolby AC3, 6 ch)
    Ukrainian (Dolby AC3, 6 ch)
    Subtitles:
    English
    Estonian
    Latvian
    Lithuanian
    Polish
    Russian
    Russian

    VTS_02 :
    Play Length: 00:00:00+00:00:00
    Video: PAL 16:9 (720x576) VBR, Auto Letterboxed
    Audio:
    Not specified (Dolby AC3, 6 ch)
    Subtitles:
    Not specified

    * Menus Information *

    VIDEO_TS Menu
    Video:
    PAL 16:9 (720x576) VBR
    Auto Pan&Scan
    Language Unit :
    Title Menu

    VTS_01 Menu
    Video:
    PAL 16:9 (720x576) VBR
    Auto Pan&Scan
    Audio:
    Not specified (Dolby AC3, 2 ch)
    English Language Unit :
    Root Menu
    Language Unit :

    Language Unit :


    VTS_02 Menu
    Video:
    NTSC 4:3 (720x480) VBR
    Auto Pan&Scan, Auto Letterboxed
    Language Unit :
    Root Menu
Свернуть
mediainfo
    Формат : MPEG-PS
    Размер файла : 1024 Мбайт
    Продолжительность : 24 м.
    Режим общего битрейта : Переменный
    Общий поток : 5952 Кбит/сек

    Видео
    Идентификатор : 224 (0xE0)
    Формат : MPEG Video
    Версия формата : Version 2
    Профиль формата : Main@Main
    Параметр BVOP формата : Да
    Параметр матрицы формата : Выборочная
    Продолжительность : 24 м.
    Вид битрейта : Переменный
    Битрейт : 5065 Кбит/сек
    Максимальный битрейт : 9800 Кбит/сек
    Ширина : 720 пикселей
    Высота : 576 пикселей
    Соотношение сторон : 16:9
    Частота кадров : 25,000 кадров/сек
    Стандарт вещания : PAL
    Цветовое пространство : YUV
    Субдискретизация насыщенности : 4:2:0
    Битовая глубина : 8 бит
    Метод сжатия : С потерями
    Бит/(Пиксели*Кадры) : 0.489
    Размер потока : 871 Мбайт (85%)

    Аудио #1
    Идентификатор : 189 (0xBD)-128 (0x80)
    Формат : AC-3
    Формат/Информация : Audio Coding 3
    Расширение режима : CM (complete main)
    Режим смешивания : DVD-Video
    Продолжительность : 24 м.
    Вид битрейта : Постоянный
    Битрейт : 384 Кбит/сек
    Каналы : 6 каналов
    Расположение каналов : Front: L C R, Side: L R, LFE
    Частота : 48,0 КГц
    Битовая глубина : 16 бит
    Метод сжатия : С потерями
    Размер потока : 66,1 Мбайт (6%)

    Аудио #2
    Идентификатор : 189 (0xBD)-130 (0x82)
    Формат : AC-3
    Формат/Информация : Audio Coding 3
    Расширение режима : CM (complete main)
    Режим смешивания : DVD-Video
    Продолжительность : 24 м.
    Вид битрейта : Постоянный
    Битрейт : 384 Кбит/сек
    Каналы : 6 каналов
    Расположение каналов : Front: L C R, Side: L R, LFE
    Частота : 48,0 КГц
    Битовая глубина : 16 бит
    Метод сжатия : С потерями
    Задержка видео : -75 мс.
    Размер потока : 66,1 Мбайт (6%)

    Текст #1
    Идентификатор : 189 (0xBD)-32 (0x20)
    Формат : RLE
    Формат/Информация : Run-length encoding
    Режим смешивания : DVD-Video

    Текст #2
    Идентификатор : 189 (0xBD)-33 (0x21)
    Формат : RLE
    Формат/Информация : Run-length encoding
    Режим смешивания : DVD-Video

    Текст #3
    Идентификатор : 189 (0xBD)-34 (0x22)
    Формат : RLE
    Формат/Информация : Run-length encoding
    Режим смешивания : DVD-Video

    Текст #4
    Идентификатор : 189 (0xBD)-35 (0x23)
    Формат : RLE
    Формат/Информация : Run-length encoding
    Режим смешивания : DVD-Video

    Текст #5
    Идентификатор : 189 (0xBD)-36 (0x24)
    Формат : RLE
    Формат/Информация : Run-length encoding
    Режим смешивания : DVD-Video

    Текст #6
    Идентификатор : 189 (0xBD)-37 (0x25)
    Формат : RLE
    Формат/Информация : Run-length encoding
    Режим смешивания : DVD-Video

    Меню
Свернуть
Знаете ли Вы, что...
  • Зелёный Фонарь был создан автором Биллом Фингером и художником Мартином Ноделлом в All-American Comics #16 (июль 1940).
  • Главными претендентами на роль Зеленого Фонаря, помимо Райана Рейнольдса, были Брэдли Купер и Джастин Тимберлейк. Главная роль могла также достаться Сэму Уортингтону, Крису Пайну и Джареду Лето.
  • Синестро (Марк Стронг) могли сыграть Хьюго Уивинг, Джеки Эрл Хейли и Джеффри Раш.
Свернуть
Скриншоты

меню
Изображение
Изображение
Изображение
Свернуть
Изображение
Изображение
Изображение
Изображение
Свернуть


Последний раз редактировалось askboy 2011-10-19 21:09, всего редактировалось 1 раз.
Не в сети
Профиль  
 Добавлено: 2011-10-19 15:10 (спустя 13 часов)
Аватара пользователя
Стаж: 9 лет
Сообщений: 13
первый нах!!!!


спс :ti_pa:
Не в сети
Профиль  
 Добавлено: 2011-10-19 15:14 (спустя 3 минуты)
Супермодератор Инквизиции
Аватара пользователя
Стаж: 8 лет 3 месяца
Возраст: 51
Сообщений: 37878
Спасибок: 1089
Лайков: 2725

killer1234:

первый нах!!!!
Скачан: 18 раз
:hi_hi_hi:
_________________
████████████ - сотри монеткой, чтобы получить пароль от этого аккаунта
Пират у копираста спиратил пиастры, копираст у пирата скопипастил фрегат :ps_ih:
Не в сети
Профиль  
 Добавлено: 2011-11-05 16:01 (спустя 17 дней)
Аватара пользователя
Стаж: 5 лет 9 месяцев
Сообщений: 7
пахахха
_________________
Я так быстро вспомнил о чем забыл,что сразу же забыл о чем вспомниЛ))XD
Не в сети
Профиль  
 Добавлено: 2012-05-13 18:34 (спустя 6 месяцев)
Стаж: 5 лет 4 месяца
Сообщений: 28
Спасибок: 4
Спс большое давно искал спасибо автору :bra_vo: :)
Не в сети
Профиль  
Начать новую темуОтветить на тему  [ Сообщений: 5 ] 
Вы не можете начинать темы
Вы не можете отвечать на сообщения
Вы не можете редактировать свои сообщения
Вы не можете удалять свои сообщения