Правила форума

  • В этом разделе создание новых тем Запрещено.
  • Для создания новых тем пользуйтесь Корневым разделом DVD и HD фильмы.
Начать новую темуОтветить на тему  [ Сообщений: 5 ] 
Торрент файл
Размер: 4.36 GB • Зарегистрирован: 5 лет 1 месяц • Статус: Проверено
Скачан: 394 раза • Желающих скачать: 0 • Поблагодарили: 72 раза
 Раздают: 0  |  0 KB/s  ]   Качают: 0  |  0 KB/s  ] 
 Полного источника не было 11 месяцев 
Сообщения
 Добавлено: 2011-10-15 01:46
Аватара пользователя
Стаж: 7 лет
Возраст: 30
Сообщений: 507
Спасибок: 1931
Земля вампиров / Stake Land

«Самое опасное - быть живым»


Изображение
Год выпуска: 2010
Страна: США, Belladonna Productions, Glass Eye Pix, Off Hollywood Pictures
Жанр: ужасы
Продолжительность: 01:34:15
Перевод: профессиональный (дублированный)
Субтитры: нет

Режиссер: Джим Микл / Jim Mickle
Сценарий: Ник Дамичи / Nick Damici, Джим Микл / Jim Mickle
Продюсер: Дерек Карл / Derek Curl, Ларри Фесенден / Larry Fessenden, Адам Фолк / Adam Folk
Оператор: Райан Самул / Ryan Samul
Композитор: Джефф Грэйс / Jeff Grace
Художник: Дэниэл Р. Керстинг / Daniel R. Kersting, Майкл Ахерн / Michael Ahern, Бек Андервуд / Beck Underwood
Монтаж: Джим Микл / Jim Mickle



Описание: Когда города и села большой страны начали разрушаться и ветшать, на них обрушилась новая напасть — эпидемия вампиризма. Там, где есть вампиры, есть и охотники на них. Некто «Мистер», самый крутой крушитель кровососов, поможет юноше перебраться на север, в так называемый Новый Эдем.
Изображение : 5.890 (956) Изображение : 6.6 (7 072)
Мировая премьера: 17 сентября 2010
Премьера в России: 15 сентября 2011, «Кинопром»
Бюджет: $4 000 000
Возрастной рейтинг MPAA: R - Детям до 17 лет обязательно присутствие родителей
Дополнительная информация: сделано Neighbour из DVD9 (6.73 Гб) [исх. лицензия, «Парадиз Видео», PAL 16:9] специально для NNTT.org
Удалено: дополнительные материалы, реклама, заставки, предупреждения, аудио (AC3, 2ch - Русский), ненужные кнопки затерты
Сжато: программами Rebuilder и CCE (Cinema Craft Encoder), 5 проходов, 30% сжатия (без учета ручного перераспределения битрейта за счет большего сжатия, конечных титров)


Релиз : Изображение

Качество: DVD5 (custom)
Формат: DVD Video
Видео кодек: MPEG2
Аудио кодек: AC3 (Dolby Digital)
Видео: PAL 16:9 (720x576) VBR Auto Letterboxed
Аудио #1: AC3, 3/2+LFE ch, 384Kbps - Русский (R5)
Аудио #2: AC3, 3/2+LFE ch, 384Kbps - Английский (язык оригинала)
Субтитры: нет

"DVDInfo"
Title: Stake Land DVD5 by Neighbour
Size: 4.36 Gb ( 4 573 030,00 KBytes ) - DVD-5
Enabled regions: 1, 2, 3, 4, 5, 6, 7, 8

VTS_01 :
Play Length: 00:00:01+01:34:15+00:00:01
Video: PAL 16:9 (720x576) VBR, Auto Letterboxed
Audio:
Russian (Dolby AC3, 6 ch)
Russian (Dolby AC3, 2 ch)
English (Dolby AC3, 6 ch)

VTS_02 :
Play Length: 00:00:00+00:00:00+00:00:00
Video: PAL 16:9 (720x576) VBR, Auto Letterboxed
Audio:
Russian (Dolby AC3, 2 ch)

VTS_03 :
Play Length: 00:00:00+00:00:01+00:00:00
Video: PAL 4:3 (720x576) VBR
Audio:
Russian (Dolby AC3, 2 ch)

VTS_04 :
Play Length: 00:00:00+00:00:03+00:00:00
Video: PAL 16:9 (720x576) VBR, Auto Letterboxed
Audio:
Russian (Dolby AC3, 2 ch)
Свернуть
"MediaInfo"
Общее
Полное имя : E:\Видео\Фильмы\Stake Land DVD5 by Neighbour\VIDEO_TS\VTS_01_2.VOB
Формат : MPEG-PS
Размер файла : 1024 Мбайт
Продолжительность : 20 м.
Общий поток : 6936 Кбит/сек

Видео
Идентификатор : 224 (0xE0)
Формат : MPEG Video
Версия формата : Version 2
Профиль формата : Main@Main
Параметр BVOP формата : Да
Параметр матрицы формата : По умолчанию
Параметры GOP формата : M=3, N=12
Продолжительность : 20 м.
Вид битрейта : Переменный
Битрейт : 6030 Кбит/сек
Номинальный битрейт : 8576 Кбит/сек
Ширина : 720 пикс.
Высота : 576 пикс.
Соотношение сторон : 16:9
Частота кадров : 25,000 кадр/сек
Стандарт вещания : PAL
Цветовое пространство : YUV
Подвыборка цветности : 4:2:0
Битовая глубина : 8 бит
Тип развёртки : Чересстрочная
Порядок развёртки : Верхнее поле первое
Метод сжатия : С потерями
Бит/(Пиксели*Кадры) : 0.582
Размер потока : 890 Мбайт (87%)

Аудио #1
Идентификатор : 189 (0xBD)-128 (0x80)
Формат : AC-3
Формат/Информация : Audio Coding 3
Расширение режима : CM (complete main)
Режим смешивания : DVD-Video
Продолжительность : 20 м.
Вид битрейта : Постоянный
Битрейт : 384 Кбит/сек
Канал(ы) : 6 канала(ов)
Расположение каналов : Front: L C R, Side: L R, LFE
Частота : 48,0 КГц
Битовая глубина : 16 бит
Метод сжатия : С потерями
Задержка видео : -704 мс.
Размер потока : 56,7 Мбайт (6%)

Аудио #2
Идентификатор : 189 (0xBD)-130 (0x82)
Формат : AC-3
Формат/Информация : Audio Coding 3
Расширение режима : CM (complete main)
Режим смешивания : DVD-Video
Продолжительность : 20 м.
Вид битрейта : Постоянный
Битрейт : 384 Кбит/сек
Канал(ы) : 6 канала(ов)
Расположение каналов : Front: L C R, Side: L R, LFE
Частота : 48,0 КГц
Битовая глубина : 16 бит
Метод сжатия : С потерями
Задержка видео : -704 мс.
Размер потока : 56,7 Мбайт (6%)

Меню
Свернуть
"Rebuilder лог"
----------------------------------
[00:34:09] Phase I, PREPARATION started.
- DVD-RB v1.28.2
- AVISYNTH 2.5.8.0
- CCE 1.0.1.9 encoder selected.
- "Adaptive Quantizer Matrices" is enabled.
- Source: VAMPIR
- VTS_01: 3 078 322 sectors.
-- Scanning and writing .D2V & .AVS files
-- Processed 141 478 frames.
-- Building .AVS and .ECL files
- Reduction Level for DVD-5: 70,0%
- Overall Bitrate : 5 671Kbs
- Space for Video : 3 917 890KB
- HIGH/LOW/TYPICAL Bitrates: 5 674/4 495/5 671 Kbs
[00:36:17] Phase I, PREPARATION completed in 2 minutes.
[00:44:27] Phase II ENCODING started
- Creating M2V for VTS_01 segment 0
- Creating M2V for VTS_01 segment 1
- Creating M2V for VTS_01 segment 2
- Creating M2V for VTS_01 segment 3
- Creating M2V for VTS_01 segment 4
- Creating M2V for VTS_01 segment 5
- Creating M2V for VTS_01 segment 6
- Creating M2V for VTS_01 segment 7
- Creating M2V for VTS_01 segment 8
- Creating M2V for VTS_01 segment 9
- Creating M2V for VTS_01 segment 10
- Creating M2V for VTS_01 segment 11
- Creating M2V for VTS_01 segment 12
- Creating M2V for VTS_01 segment 13
- Creating M2V for VTS_01 segment 14
[02:04:08] Phase II ENCODING completed in 80 minutes.
[02:04:12] Phase III, REBUILD started.
- Copying IFO, BUP, and unaltered files...
- Processing VTS_01
- Reading/processing TMAP table...
- Rebuilding seg 0 VOBID 1 CELLID 1
- Updating NAVPACKS for VOBID_01
- Rebuilding seg 1 VOBID 2 CELLID 1
- Rebuilding seg 2 VOBID 2 CELLID 2
- Rebuilding seg 3 VOBID 2 CELLID 3
- Rebuilding seg 4 VOBID 2 CELLID 4
- Rebuilding seg 5 VOBID 2 CELLID 5
- Rebuilding seg 6 VOBID 2 CELLID 6
- Rebuilding seg 7 VOBID 2 CELLID 7
- Rebuilding seg 8 VOBID 2 CELLID 8
- Rebuilding seg 9 VOBID 2 CELLID 9
- Rebuilding seg 10 VOBID 2 CELLID 10
- Rebuilding seg 11 VOBID 2 CELLID 11
- Rebuilding seg 12 VOBID 2 CELLID 12
- Rebuilding seg 13 VOBID 2 CELLID 13
- Updating NAVPACKS for VOBID_02
- Rebuilding seg 14 VOBID 3 CELLID 1
- Updating NAVPACKS for VOBID_03
- Updated VTS_C_ADT.
- Updated VTS_VOBU_ADMAP.
- Updated IFO: VTS_01_0.IFO
- Updating TMAP table...
- Correcting VTS Sectors...
[02:12:22] Phase III, REBUILD completed in 8 minutes.

Done.

Свернуть
"Скриншоты"
"Скриншоты меню"
Изображение

Изображение

Изображение
Свернуть
"Скриншоты фильма"
Изображение

Изображение

Изображение

Изображение

Изображение
Свернуть
Свернуть


Последний раз редактировалось Vitaly2110 2013-05-03 10:58, всего редактировалось 2 раз(а).
Не в сети
Профиль  
 Добавлено: 2011-10-17 00:17 (спустя 1 день 22 часа)
Аватара пользователя
Стаж: 7 лет 7 месяцев
Сообщений: 310
Фильм понравился :co_ol:
Не в сети
Профиль  
 Добавлено: 2011-10-18 00:49 (спустя 1 день)
Стаж: 6 лет 9 месяцев
Сообщений: 36
Лайков: 1
Фильм со своим настроением и атмосферой. Философский ужастик. Мне понравился, хотя на любителя. Почти по настоящему передано ощущение присутствия вампиров как само собой разумеющееся в жизни. Диалог Она: "О! Уолтер пришел. Он: "Кто такой Уолтер?" Она: "В школе вместе учились. Никак не могу завалить" Он: "Давай я завалю" Она: "Нет не надо, я сама". В общем удачный фильм. Главное, что не отдает дешевизной, хотя на грани, но нет не отдает. Посмотреть можно
Не в сети
Профиль  
 Добавлено: 2012-10-27 20:54 (спустя 1 год)
Аватара пользователя
Стаж: 4 года 4 месяца
Возраст: 33
Сообщений: 178
Лайков: 3
блин получится чумовая комедия если перевести на ураинский с еврейским акцентом!!!! ;;-))) ;;-))) ;;-))) ;;-))) а фильм не чо можно глянуть... :sh_ok:
Не в сети
Профиль  
 Добавлено: 2012-10-28 16:42 (спустя 19 часов)
Стаж: 5 лет 3 месяца
Сообщений: 150
Лайков: 1
мне тоже понравмлся
Не в сети
Профиль  
Начать новую темуОтветить на тему  [ Сообщений: 5 ] 
Вы не можете начинать темы
Вы не можете отвечать на сообщения
Вы не можете редактировать свои сообщения
Вы не можете удалять свои сообщения