Правила форума

  • В этом разделе создание новых тем Запрещено.
  • Для создания новых тем пользуйтесь Корневым разделом DVD и HD фильмы.
Начать новую темуОтветить на тему  [ Сообщений: 5 ] 
Торрент файл
Размер: 7.49 GB • Зарегистрирован: 4 года 2 месяца • Статус: Проверено
Скачан: 118 раз • Желающих скачать: 0 • Поблагодарили: 34 раза
 Раздают: 0  |  0 KB/s  ]   Качают: 0  |  0 KB/s  ] 
 Полного источника не было 1 год 10 месяцев 
Сообщения
 Добавлено: 2012-09-26 22:51
Аватара пользователя
Стаж: 5 лет 5 месяцев
Возраст: 30
Сообщений: 353
Спасибок: 7455
ЗЛО / V/H/S

Изображение


Год выпуска: 2012
Страна: США (Bloody Disgusting, Collective, The)
Слоган: «Оно пробудилось»
Жанр: ужасы, триллер
Продолжительность: 01:50:09
Перевод: Профессиональный (дубляж)
Субтитры: Нет

Режиссёр: Мэттью Беттинелли, Адам Вингард, Дэвид Брукнер / Matt Bettinelli, Adam Wyngarden, David Bruckner
Сценарист: Саймон Баррет, Ти Уэст, Мэттью Беттинелли
Продюсер: Роксанна Бенжамин, Гари Бинкоу, Брэд Миска
Оператор: Эрик Бранко, Эндрю Дроз Палермо, Виктория К. Уоррен
В ролях: Кэлвин Ридер, Лэйн Хьюз, Адам Вингард, Ханна Файрман, Майк Донлан, Джо Сайкес, Дрю Сойер, Джессика Сэмс, Джо Сванберг, Софи Такал

Описание: В поисках редкой видеозаписи трое взломщиков пробираются в таинственный особняк. Хозяин ждет их у включенного телевизора и, похоже, не слишком радуется визиту. Он мертв уже несколько дней, а его странное наследие — коллекция старых видеозаписей, покоится неподалеку.
Желая отыскать нужную пленку, друзья просматривают весь архив. Каждая запись погружает их в новый кошмар, настолько реальный, будто он происходит у них на глазах. И с каждой минутой где-то совсем рядом пробуждается оно, неведомое и беспощадное ЗЛО.

Доп.информация: Нет
Рейтинг MPAA: Рейтинг R (Подростки до 17 лет допускаются на фильм только в сопровождении одного из родителей)
Мировая премьера: 22 января 2012
Премьера в России: 6 сентября 2012, «Каскад»

Изображение Изображение Изображение

Качество: DVD9 R5
Формат: DVD Video
Видео кодек: MPEG2
Аудио кодек: AC3 (Dolby Digital)
Видео: PAL 16:9 (720x576(0.858)) MPEG Video, 25,000 кадр/сек, 8900 Кбит/сек
Аудио #1: Russian (Dolby AC3, 6 ch) 448 Кбит/сек, 48,0 КГц [Профессиональный (дубляж)]
Субтитры: Нет

"DVDInfo"
Title: Zlo.2012.DVD9
Size: 7.49 Gb ( 7 854 660,00 KBytes ) - DVD-9
Enabled regions: 1, 2, 3, 4, 5, 6, 7, 8

VTS_01 :
Play Length: 01:50:09
Video: PAL 16:9 (720x576) VBR, Auto Letterboxed
Audio:
Russian (Dolby AC3, 6 ch)

VTS_02 :
Play Length: 00:00:16+00:00:08+00:02:07
Video: PAL 16:9 (720x576) VBR, Auto Letterboxed
Audio:
Russian (Dolby AC3, 2 ch)

* Menus Information *

VIDEO_TS Menu
Video:
NTSC 4:3 (720x480) VBR
Auto Pan&Scan, Auto Letterboxed
Russian Language Unit :
Title Menu

VTS_01 Menu
Video:
PAL 16:9 (720x576) VBR
Auto Letterboxed
Audio:
Not specified (Dolby AC3, 2 ch)
Russian Language Unit :
Root Menu

VTS_02 Menu
Video:
NTSC 4:3 (720x480) VBR
Auto Pan&Scan, Auto Letterboxed
Language Unit :

Language Unit :

Language Unit :
Свернуть

"MediaInfo"
Общее
Полное имя : J:\Новинки 2012\Zlo.2012.DVD9\VIDEO_TS\VTS_01_1.VOB
Формат : MPEG-PS
Размер файла : 1024 Мбайт
Продолжительность : 15 м.
Общий поток : 9502 Кбит/сек

Видео
Идентификатор : 224 (0xE0)
Формат : MPEG Video
Версия формата : Version 2
Профиль формата : Main@Main
Параметр BVOP формата : Да
Параметр матрицы формата : Выборочная
Продолжительность : 15 м.
Битрейт : 8900 Кбит/сек
Ширина : 720 пикселей
Высота : 576 пикселей
Соотношение сторон : 16:9
Частота кадров : 25,000 кадров/сек
Стандарт вещания : PAL
Цветовое пространство : YUV
Субдискретизация насыщенности : 4:2:0
Битовая глубина : 8 бит
Тип развёртки : Чересстрочная
Порядок развёртки : Верхнее поле первое
Метод сжатия : С потерями
Бит/(Пиксели*Кадры) : 0.858
Размер потока : 955 Мбайт (93%)

Аудио
Идентификатор : 189 (0xBD)-128 (0x80)
Формат : AC-3
Формат/Информация : Audio Coding 3
Расширение режима : CM (complete main)
Параметр Endianness формата : Big
Режим смешивания : DVD-Video
Продолжительность : 15 м.
Вид битрейта : Постоянный
Битрейт : 448 Кбит/сек
Каналы : 6 каналов
Расположение каналов : Front: L C R, Side: L R, LFE
Частота : 48,0 КГц
Битовая глубина : 16 бит
Метод сжатия : С потерями
Размер потока : 48,3 Мбайт (5%)

Свернуть

Скриншоты
Скриншоты меню
Изображение
Изображение
Свернуть
Изображение
Изображение
Изображение
Изображение
Изображение
Изображение
Изображение
Изображение
Изображение
Изображение
Свернуть


Изображение
Не в сети
Профиль  
 Добавлено: 2012-09-28 13:00 (спустя 1 день 14 часов)
Стаж: 5 лет 3 месяца
Сообщений: 151
Лайков: 2
Тупизна редчайшая! Осилил только 30 минут просмотра! а ЭТО идёт почти два часа! Даже не могу представить,что за ху...нь будет дальше!
Не в сети
Профиль  
 Добавлено: 2012-09-28 18:54 (спустя 5 часов)
Аватара пользователя
Стаж: 8 лет 7 месяцев
Возраст: 37
Сообщений: 115
Спасибок: 191
Лайков: 2
фильм полная шляпа.....
Не в сети
Профиль  
 Добавлено: 2012-10-09 21:53 (спустя 11 дней)
Аватара пользователя
Стаж: 8 лет 1 месяц
Возраст: 30
Сообщений: 114
Спасибок: 11
Лайков: 1
Фильм сборник историй, как байки из склепа... Мне было интересно смотреть... особенно последняя история заинтриговала...

К стати это самый замечательный перевод, который, мне довелось слышать.
Не в сети
Профиль  
 Добавлено: 2012-11-26 11:58 (спустя 1 месяц 16 дней)
Аватара пользователя
Стаж: 6 лет 7 месяцев
Сообщений: 564
Спасибок: 1110
Лайков: 3
Бредовый фильм
Не в сети
Профиль  
Начать новую темуОтветить на тему  [ Сообщений: 5 ] 
Вы не можете начинать темы
Вы не можете отвечать на сообщения
Вы не можете редактировать свои сообщения
Вы не можете удалять свои сообщения