Правила форума

  • В этом разделе создание новых тем Запрещено.
  • Для создания новых тем пользуйтесь Корневым разделом DVD и HD фильмы.
Начать новую темуОтветить на тему  [ Сообщений: 5 ] 
Торрент файл
Размер: 6.58 GB • Зарегистрирован: 3 года 3 месяца • Статус: Проверено
Скачан: 93 раза • Желающих скачать: 0 • Поблагодарили: 41 раз
 Раздают: 1  |  0 KB/s  ]   Качают: 0  |  0 KB/s  ] 
Сообщения
 Добавлено: 2013-08-12 13:17
Руководитель релиз-группы
Аватара пользователя
Стаж: 7 лет 4 месяца
Возраст: 31
Сообщений: 3407
Спасибок: 46729
Лайков: 5
Изображение

Зловещие мертвецы: Черная книга
Evil Dead


Год выпуска: 2013
Страна: США
Слоган: «Уже не остановить»
Жанр: ужасы
Продолжительность: 01:27:34
Перевод: Профессиональный (полное дублирование)
Режиссер: Федерико Альварес
Сценарий: Федерико Альварес, Родольфо Саягес, Сэм Рэйми
Продюсер: Брюс Кэмпбелл, Сэм Рэйми, Роберт Дж. Тейперт, Сэлли Кэмпбелл, Джозеф Дрэйк
Оператор: Аарон Мортон
Композитор: Роке Баньос
В ролях: Джейн Леви, Шайло Фернандес, Лу Тэйлор Пуччи, Джессика Лукас, Элизабет Блэкмор, Феникс Коннолли, Джим МакЛарти, Сиан Дэвис, Стефен Баттерворф, Карл Виллетц, Рендал Уилсон, Руперт Дегас
Бюджет: $17 000 000
Сборы в мире: $97 454 981
Описание: Молодая женщина Миа, пытающаяся избавиться от наркозависимости, отправляется вместе с братом и группой друзей в удалённую хижину, где они открывают Книгу мёртвых, что приводит к опасности и ужасу.
Изображение
MPAA: Изображение
Релиз: Изображение Раздача группы: Изображение
Качество: DVD9
Формат: DVD Video
Видео: MPEG2; PAL 16:9 (720x576)
Аудио #1: Dolby AC3, 6 ch, 384 Kbps Russian
Аудио #2: Dolby AC3, 6 ch, 448 Kbps English
Аудио #3: Dolby AC3, 6 ch, 384 Kbps Czech(Ceske)
Аудио #4: Dolby AC3, 6 ch, 384 Kbps Magyar
Аудио #5: Dolby AC3, 6 ch, 384 Kbps Polish
Субтитры: русские, английские, украинские, эстонские, польские, чешские, венгерские, греческие, хинди, арабские, хорватские, исландские, словенские, словацкие, румынские, иврит, португальские, турецкие
Дополнительно: Анимированное меню, Создание фильма
DVDInfo
    Title: Zloveschie.Mertvetsy.2013.DVD9
    Size: 6.58 Gb ( 6 900 840,00 KBytes ) - DVD-9
    Enabled regions: 1, 2, 3, 4, 5, 6, 7, 8

    VTS_01 :
    Play Length: 01:27:34
    Video: PAL 16:9 (720x576) VBR, Auto Letterboxed
    Audio:
    English (Dolby AC3, 6 ch)
    Czech(Ceske) (Dolby AC3, 6 ch)
    Magyar (Dolby AC3, 6 ch)
    Polish (Dolby AC3, 6 ch)
    Russian (Dolby AC3, 6 ch)
    Subtitles:
    English
    Arabic
    Hrvatski
    Czech(Ceske)
    Estonian
    Greek
    Hebrew
    Hindi
    Magyar
    Islenska
    Polish
    Portugues
    Romanian
    Russian
    Slovak
    Slovenian
    Turkish
    Ukrainian

    VTS_02 :
    Play Length: 00:07:07+00:07:53+00:08:51
    Video: PAL 16:9 (720x576) VBR, Auto Letterboxed
    Audio:
    English (Dolby AC3, 6 ch)
    Subtitles:
    English

    VTS_03 :
    Play Length: 00:04:36+00:01:44
    Video: PAL 16:9 (720x576) VBR, Auto Letterboxed
    Audio:
    English (Dolby AC3, 6 ch)

    VTS_04 :
    Play Length: 00:04:33+{00:00:00}
    Video: PAL 16:9 (720x576) VBR, Auto Letterboxed
    Audio:
    English (Dolby AC3, 2 ch)

    VTS_05 :
    Play Length: 00:00:00+00:00:10+{00:00:00}+{00:00:00}+{00:00:00}+{00:00:00}+{00:00:00}+{00:00:00}+00:00:10+{00:00:00}+{00:00:10}+{00:00:00}+{00:00:00}+{00:00:00}+{00:00:00}+{00:00:00}+{00:00:00}+{00:00:10}+{00:00:00}+00:00:10+{00:00:00}+00:00:05+00:00:10+{00:00:00}+{00:00:00}+00:00:10+00:00:10+00:00:05+00:00:10+00:00:10+{00:00:00}+00:00:10+00:00:08+00:00:05+{00:00:00}+{00:00:00}+00:00:10+00:00:05+{00:00:00}+00:00:10+{00:00:00}
    Video: PAL 16:9 (720x576) VBR, Auto Letterboxed
    Audio:
    Not specified (Dolby AC3, 2 ch)

    VTS_06 :
    Play Length: 00:00:00+00:00:05+00:00:05+{00:00:00}+00:00:05+00:00:05+{00:00:00}+{00:00:00}+{00:00:00}+{00:00:00}+{00:00:00}+00:00:05+00:00:05+00:00:05+00:00:05+00:00:05+{00:00:00}+{00:00:00}+00:00:05+00:00:05+00:00:05+00:00:05+{00:00:00}+00:00:05+00:00:05+{00:00:00}+{00:00:00}+00:00:05+{00:00:00}
    Video: PAL 16:9 (720x576) VBR, Auto Letterboxed
    Audio:
    Not specified (Dolby AC3, 2 ch)

    VTS_07 :
    Play Length: 00:00:00
    Video: PAL 16:9 (720x576) VBR, Auto Letterboxed
    Audio:
    English (Dolby AC3, 2 ch)

    VTS_08 :
    Play Length: 00:00:00
    Video: PAL 16:9 (720x576) VBR, Auto Letterboxed
    Audio:
    English (Dolby AC3, 2 ch)

    VTS_09 :
    Play Length: 00:00:00
    Video: PAL 16:9 (720x576) VBR, Auto Letterboxed
    Audio:
    Not specified (Dolby AC3, 2 ch)

    VTS_10 :
    Play Length: 00:00:00+{00:00:00}+{00:00:00}+{00:00:00}+{00:00:00}+{00:00:00}
    Video: PAL 4:3 (720x576) VBR
Свернуть
mediainfo
    Формат : MPEG-PS
    Размер файла : 1024 Мбайт
    Продолжительность : 17 м.
    Режим общего битрейта : Переменный
    Общий поток : 7958 Кбит/сек

    Видео
    Идентификатор : 224 (0xE0)
    Формат : MPEG Video
    Версия формата : Version 2
    Профиль формата : Main@Main
    Параметр BVOP формата : Да
    Параметр матрицы формата : Выборочная
    Продолжительность : 17 м.
    Вид битрейта : Переменный
    Битрейт : 5816 Кбит/сек
    Максимальный битрейт : 9800 Кбит/сек
    Ширина : 720 пикселей
    Высота : 576 пикселей
    Соотношение сторон : 16:9
    Частота кадров : 25,000 кадров/сек
    Стандарт вещания : PAL
    Цветовое пространство : YUV
    Субдискретизация насыщенности : 4:2:0
    Битовая глубина : 8 бит
    Тип развёртки : Прогрессивная
    Порядок развёртки : Верхнее поле первое
    Метод сжатия : С потерями
    Бит/(Пиксели*Кадры) : 0.561
    Размер потока : 748 Мбайт (73%)

    Аудио #1
    Идентификатор : 189 (0xBD)-128 (0x80)
    Формат : AC-3
    Формат/Информация : Audio Coding 3
    Расширение режима : CM (complete main)
    Режим смешивания : DVD-Video
    Продолжительность : 17 м.
    Вид битрейта : Постоянный
    Битрейт : 448 Кбит/сек
    Каналы : 6 каналов
    Расположение каналов : Front: L C R, Side: L R, LFE
    Частота : 48,0 КГц
    Битовая глубина : 16 бит
    Метод сжатия : С потерями
    Размер потока : 57,6 Мбайт (6%)

    Аудио #2
    Идентификатор : 189 (0xBD)-129 (0x81)
    Формат : AC-3
    Формат/Информация : Audio Coding 3
    Расширение режима : CM (complete main)
    Режим смешивания : DVD-Video
    Продолжительность : 17 м.
    Вид битрейта : Постоянный
    Битрейт : 384 Кбит/сек
    Каналы : 6 каналов
    Расположение каналов : Front: L C R, Side: L R, LFE
    Частота : 48,0 КГц
    Битовая глубина : 16 бит
    Метод сжатия : С потерями
    Размер потока : 49,4 Мбайт (5%)

    Аудио #3
    Идентификатор : 189 (0xBD)-130 (0x82)
    Формат : AC-3
    Формат/Информация : Audio Coding 3
    Расширение режима : CM (complete main)
    Режим смешивания : DVD-Video
    Продолжительность : 17 м.
    Вид битрейта : Постоянный
    Битрейт : 384 Кбит/сек
    Каналы : 6 каналов
    Расположение каналов : Front: L C R, Side: L R, LFE
    Частота : 48,0 КГц
    Битовая глубина : 16 бит
    Метод сжатия : С потерями
    Размер потока : 49,4 Мбайт (5%)

    Аудио #4
    Идентификатор : 189 (0xBD)-131 (0x83)
    Формат : AC-3
    Формат/Информация : Audio Coding 3
    Расширение режима : CM (complete main)
    Режим смешивания : DVD-Video
    Продолжительность : 17 м.
    Вид битрейта : Постоянный
    Битрейт : 384 Кбит/сек
    Каналы : 6 каналов
    Расположение каналов : Front: L C R, Side: L R, LFE
    Частота : 48,0 КГц
    Битовая глубина : 16 бит
    Метод сжатия : С потерями
    Размер потока : 49,4 Мбайт (5%)

    Аудио #5
    Идентификатор : 189 (0xBD)-132 (0x84)
    Формат : AC-3
    Формат/Информация : Audio Coding 3
    Расширение режима : CM (complete main)
    Режим смешивания : DVD-Video
    Продолжительность : 17 м.
    Вид битрейта : Постоянный
    Битрейт : 384 Кбит/сек
    Каналы : 6 каналов
    Расположение каналов : Front: L C R, Side: L R, LFE
    Частота : 48,0 КГц
    Битовая глубина : 16 бит
    Метод сжатия : С потерями
    Размер потока : 49,4 Мбайт (5%)

    Меню

Свернуть
Знаете ли Вы, что...
  • В сцене, где разорванное ожерелье находят у хижины, можно заметить, что оно сложено в форме черепа.
  • Если сложить первые буквы имен главных героев, то получится слово «demon» («демон»): Дэвид (David), Эрик (Eric), Мия (Mia), Оливия (Olivia) и Натали (Natalie).
  • Джерни Смоллетт пробовалась на роль Оливии.
  • Фильм стал полнометражным дебютом Федерико Альвареса. Для режиссера проект стал осуществлением детской мечты. Ему предоставили неограниченную свободу и позволили снимать свой фильм так, как он сочтет нужным.
  • Чтобы сохранить классическую атмосферу 1981 года, Альварес пытался использовать по большей части физические спецэффекты, воздерживаясь от компьютерной графики там, где было возможно.
  • Альварес поразил продюсеров своим подходом к съемке и любовью к различным эффектам. Режиссер был убежден, что с помощью необычных ракурсов съемки и нестандартного передвижения камеры он сможет добиться требуемого накала страстей и аутентичности.
  • Для съемки сцен с одержимыми демонами героями режиссер пригласил профессионального хореографа. Тот помог актерам двигаться по возможности более реалистично.
  • Элизабет Блэкмор, играющая роль Натали, первой прошла пробы на роль.
  • Для съемок фильма были построены две идентичные хижины. Первая хижина была построена в настоящем лесу. Точную копию соорудили в павильоне, поскольку сложный пластический грим нельзя было снимать на натуре.
  • Для одной из героинь команда специалистов по пластическому гриму приготовила пять различных ручных протезов, которые демонстрировали разные стадии ее преображения.
  • По словам супервайзера по физическим спецэффектам Джейсона Дьюри, на съемках фильма было израсходовано около 25 000 литров бутафорской крови и около 300 литров рвотной жидкости.
  • Изначально роль Мии должна была исполнять Лили Коллинз, однако она выбыла из проекта из-за несовпадения рабочих графиков. Ходили слухи, что капризная актриса просто не захотела портить свою фильмографию ролью наркоманки.
  • Джиллиан Джейкобс пробовалась на роль Мии, но проиграла Лили Коллинз. Позже Коллинз покинула проект, и в итоге роль отошла Джейн Леви.
  • Агнес Бракнер и Тора Бёрч пробовались на роль Натали.
  • В одной сцене показывают карты, разложенные на столе. Они выложены в том же порядке, как и в оригинальном фильме «Зловещие мертвецы» (1981).
  • еще 12 фактов
Свернуть
Скриншоты

меню
Изображение

Изображение

Изображение

Изображение
Свернуть
Изображение

Изображение

Изображение

Изображение

Изображение
Свернуть
Не в сети
Профиль  
 Добавлено: 2013-08-12 14:24 (спустя 1 час 7 минут)
Аватара пользователя
Стаж: 3 года 3 месяца
Возраст: 29
Сообщений: 8
Лайков: 1
Походу противный фильм :(
Не в сети
Профиль  
 Добавлено: 2013-08-25 11:03 (спустя 12 дней)
Футбольный фронт
Аватара пользователя
Стаж: 8 лет 2 месяца
Сообщений: 191
7 из 10
Не в сети
Профиль  
 Добавлено: 2013-09-25 18:23 (спустя 1 месяц)
Стаж: 5 лет 1 месяц
Сообщений: 44
старые зловещие мертвециы мне лично больше нравяться :ti_pa:
Не в сети
Профиль  
 Добавлено: 2013-11-20 11:06 (спустя 1 месяц 24 дня)
Стаж: 7 лет 9 месяцев
Сообщений: 120
Лайков: 7
не очень...
Не в сети
Профиль  
Начать новую темуОтветить на тему  [ Сообщений: 5 ] 
Вы не можете начинать темы
Вы не можете отвечать на сообщения
Вы не можете редактировать свои сообщения
Вы не можете удалять свои сообщения