Правила форума

  • В этом разделе создание новых тем Запрещено.
  • Для создания новых тем пользуйтесь Корневым разделом DVD и HD фильмы.
Начать новую темуОтветить на тему  [ Сообщений: 3 ] 
Торрент файл
Размер: 6.42 GB • Зарегистрирован: 5 лет 7 месяцев • Статус: Проверено
Скачан: 112 раз • Желающих скачать: 0 • Поблагодарили: 19 раз
 Раздают: 0  |  0 KB/s  ]   Качают: 0  |  0 KB/s  ] 
 Полного источника не было 3 года 2 месяца 
Сообщения
 Добавлено: 2011-04-27 22:55
Top-releaser
Аватара пользователя
Стаж: 7 лет 3 месяца
Возраст: 25
Сообщений: 1036
Спасибок: 2694
Лайков: 9
Знакомство с Факерами 2 / Little Fockers

«Даже дети не помогут?»

Изображение



Год выхода: 2010
Страна: США

Жанр: комедия
Продолжительность: 01:33:45
Перевод: Дублированный [лицензия]

Режиссер: Пол Вайц
Сценарий: Джон Гамбург, Ларри Стаки, Грег Глиенна
Продюсер: Джейн Розенталь, Роберт Де Ниро, Джон Гамбург
Оператор: Реми Адефаразин
Композитор:Стефен Траск

В ролях: Роберт Де Ниро, Бен Стиллер, Оуэн Уилсон, Дастин Хоффман, Джессика Альба, Барбара Стрейзанд, Эрика Дженсен, Блайт Даннер, Тери Поло, Лора Дерн и др.

Описание: 10 лет, двое детей и бесчисленные испытания понадобились Грегу для того, чтобы тесть частично примирился с его существованием. Но после того как Грег, оказавшись на мели, находит себе халтуру в фармацевтической компании, подозрения Джека увеличиваются в геометрической прогрессии. Когда все семейство Грега и Пэм, включая ее бывшего возлюбленного Кевина, соберутся на день рождения близнецов, Грегу придется доказать скептично настроенному Джеку, что он настоящий хозяин в доме. Недоразумения, слежка, миссии под прикрытием — как все это поможет Грегу пройти последнее испытание и стать новым главой семьи? Или возникшее между родственниками доверие будет подорвано… к лучшему?


Бюджет: $100 000 000
Сборы в США: $148 438 600
Сборы в мире: + $161 109 287 = $309 547 887
Сборы в России: $12 607 406
DVD в США: $15 402 285

Зрители: Изображение 1.86 млн, Изображение 1.28 млн, Изображение 1.278 млн, ...

KinoPoisk.ru: 5.996
IMDb.com: 5.3/10

Pаздача группы:Изображение

Качество: DVD9 R5
Формат: DVD Video

Видео: MPEG2 Video 720x576 (16:9) 25.00fps 9800kbps
Аудио 1: Russian / English / Ukrainian: Dolby AC3, 48.0 KHz, 6 ch
Subtitle: Russian, English, Ukrainian: Rle

MediaInfo
General
Complete name : H:\ReLease\Znakomstvo.s.Fakerami.2\VIDEO_TS\VTS_08_4.VOB
Format : MPEG-PS
File size : 1 024 MiB
Duration : 19mn 46s
Overall bit rate : 7 237 Kbps

Video
ID : 224 (0xE0)
Format : MPEG Video
Format version : Version 2
Format profile : Main@Main
Format settings, BVOP : Yes
Format settings, Matrix : Default
Format settings, GOP : M=3, N=12
Duration : 19mn 46s
Bit rate mode : Variable
Bit rate : 5 749 Kbps
Nominal bit rate : 9 800 Kbps
Width : 720 pixels
Height : 576 pixels
Display aspect ratio : 16:9
Frame rate : 25.000 fps
Standard : Component
Color space : YUV
Chroma subsampling : 4:2:0
Bit depth : 8 bits
Scan type : Progressive
Scan order : Top Field First
Compression mode : Lossy
Bits/(Pixel*Frame) : 0.555
Stream size : 813 MiB (79%)

Audio #1
ID : 189 (0xBD)-128 (0x80)
Format : AC-3
Format/Info : Audio Coding 3
Mode extension : CM (complete main)
Muxing mode : DVD-Video
Duration : 19mn 46s
Bit rate mode : Constant
Bit rate : 448 Kbps
Channel(s) : 6 channels
Channel positions : Front: L C R, Side: L R, LFE
Sampling rate : 48.0 KHz
Bit depth : 16 bits
Compression mode : Lossy
Delay relative to video : -904ms
Stream size : 63.4 MiB (6%)

Audio #2
ID : 189 (0xBD)-129 (0x81)
Format : AC-3
Format/Info : Audio Coding 3
Mode extension : CM (complete main)
Muxing mode : DVD-Video
Duration : 19mn 46s
Bit rate mode : Constant
Bit rate : 448 Kbps
Channel(s) : 6 channels
Channel positions : Front: L C R, Side: L R, LFE
Sampling rate : 48.0 KHz
Bit depth : 16 bits
Compression mode : Lossy
Delay relative to video : -904ms
Stream size : 63.4 MiB (6%)

Audio #3
ID : 189 (0xBD)-130 (0x82)
Format : AC-3
Format/Info : Audio Coding 3
Mode extension : CM (complete main)
Muxing mode : DVD-Video
Duration : 19mn 46s
Bit rate mode : Constant
Bit rate : 448 Kbps
Channel(s) : 6 channels
Channel positions : Front: L C R, Side: L R, LFE
Sampling rate : 48.0 KHz
Bit depth : 16 bits
Compression mode : Lossy
Delay relative to video : -904ms
Stream size : 63.4 MiB (6%)

Text #1
ID : 189 (0xBD)-32 (0x20)
Format : RLE
Format/Info : Run-length encoding
Muxing mode : DVD-Video
Delay relative to video : 1s 160ms

Text #2
ID : 189 (0xBD)-33 (0x21)
Format : RLE
Format/Info : Run-length encoding
Muxing mode : DVD-Video
Delay relative to video : 1s 160ms

Text #3
ID : 189 (0xBD)-34 (0x22)
Format : RLE
Format/Info : Run-length encoding
Muxing mode : DVD-Video
Delay relative to video : 1s 160ms

Text #4
ID : 189 (0xBD)-35 (0x23)
Format : RLE
Format/Info : Run-length encoding
Muxing mode : DVD-Video
Delay relative to video : 1s 160ms

Text #5
ID : 189 (0xBD)-36 (0x24)
Format : RLE
Format/Info : Run-length encoding
Muxing mode : DVD-Video
Delay relative to video : 1s 160ms

Text #6
ID : 189 (0xBD)-37 (0x25)
Format : RLE
Format/Info : Run-length encoding
Muxing mode : DVD-Video
Delay relative to video : 1s 160ms

Menu
Свернуть
Скриншоты
Изображение
Изображение
Изображение
Изображение
Изображение
Изображение
Свернуть
Не в сети
Профиль  
 Добавлено: 2011-05-01 14:04 (спустя 3 дня)
Стаж: 6 лет 3 месяца
Сообщений: 88
скоростииииииииии

Добавлено спустя 3 минуты:
спасибо фильм не знаю какой хороший или плохой(ха-ха-ха прямо в рифму получилось)мать все уши прожужала нать такчто придется проверить и скачать хотя надо сначала скачать апотом проверить!:)
Не в сети
Профиль  
 Добавлено: 2015-09-13 16:42 (спустя 4 года 4 месяца)
Top-releaser
Аватара пользователя
Стаж: 7 лет 4 месяца
Возраст: 38
Сообщений: 5348
Спасибок: 10074
Лайков: 2938
Угарный фильмец! От души можно посмеяться!
Не в сети
Профиль  
Начать новую темуОтветить на тему  [ Сообщений: 3 ] 
Вы не можете начинать темы
Вы не можете отвечать на сообщения
Вы не можете редактировать свои сообщения
Вы не можете удалять свои сообщения