Правила форума

  • В этом разделе создание новых тем Запрещено.
  • Для создания новых тем пользуйтесь Корневым разделом DVD и HD фильмы.
Начать новую темуОтветить на тему  [ Сообщений: 2 ] 
Торрент файл
Размер: 11.06 GB • Зарегистрирован: 10 месяцев • Статус: T Временный релиз
Скачан: 64 раза • Желающих скачать: 0 • Поблагодарили: 14 раз
 Раздают: 1  |  0 KB/s  ]   Качают: 0  |  0 KB/s  ] 
Сообщения
 Добавлено: 2016-01-17 15:50
RG-ELEKTRO
Аватара пользователя
Стаж: 2 года 3 месяца
Сообщений: 7928
Спасибок: 53776
Лайков: 3304
007: Спектр / Spectre


Изображение


Год выпуска: 2015
Страна: Великобритания, США (Columbia Pictures, Danjaq, Eon Productions Ltd., Metro-Goldwyn-Mayer (MGM), Sony)
Жанр: Боевик, Триллер, Приключения
Продолжительность: 02:28:07
Перевод: Дублированный (звук с CAMRip) + Оригинальная звуковая дорожка
Субтитры: Английские

Режиссёр: Сэм Мендес
В ролях: Дэниэл Крэйг, Кристоф Вальц, Леа Сейду, Рэйф Файнс, Моника Беллуччи, Бен Уишоу, Наоми Харрис, Дэйв Батиста, Эндрю Скотт, Рори Киннер
Описание: Зашифрованное послание из неизвестного источника выводит Бонда на след зловещей глобальной организации под кодовым названием СПЕКТР, в то время как М пытается спасти секретную разведывательную службу от ликвидации.

Изображение Изображение
Качество: BDRip 1080p
Формат: MKV
Видео кодек: MPEG-4 AVC
Аудио кодек: AC3 / DTS
Видео: MPEG-4 AVC, 9058 kb/s, 1920x808
Аудио #1: AC3, 2 ch, 128 kbps [Дублированный (звук с CAMRip)]
Аудио #2: DTS, 5.1 ch, 1509kbps | English [Оригинальная звуковая дорожка]
Субтитры: Английские

"MI"
Общее
Уникальный идентификатор : 242210743301499001034684597312333108279 (0xB63817A370F216A0BCD9E84454B55437)
Полное имя : D:\фильмы\OO7.Spektr.2O15.D.BDRip.108OP.mkv
Формат : Matroska
Версия формата : Version 2
Размер файла : 11,1 Гбайт
Продолжительность : 2 ч. 28 м.
Общий поток : 10,7 Мбит/сек
Дата кодирования : UTC 2016-01-16 19:03:19
Программа кодирования : mkvmerge v8.3.0 ('Over the Horizon') 64bit
Библиотека кодирования : libebml v1.3.1 + libmatroska v1.4.2

Видео
Идентификатор : 2
Формат : AVC
Формат/Информация : Advanced Video Codec
Профиль формата : High@L4.1
Параметр CABAC формата : Да
Параметр ReFrames формата : 5 кадров
Идентификатор кодека : V_MPEG4/ISO/AVC
Продолжительность : 2 ч. 28 м.
Битрейт : 9058 Кбит/сек
Ширина : 1920 пикселей
Высота : 808 пикселей
Соотношение сторон : 2,40:1
Режим частоты кадров : Постоянный
Частота кадров : 23,976 кадра/сек
Цветовое пространство : YUV
Субдискретизация насыщенности : 4:2:0
Битовая глубина : 8 бит
Тип развёртки : Прогрессивная
Бит/(Пиксели*Кадры) : 0.244
Размер потока : 9,15 Гбайт (83%)
Библиотека кодирования : x264 core 148 r2638 7599210
Настройки программы : cabac=1 / ref=5 / deblock=1:0:0 / analyse=0x3:0x133 / me=umh / subme=7 / psy=1 / psy_rd=1.00:0.00 / mixed_ref=1 / me_range=16 / chroma_me=1 / trellis=1 / 8x8dct=1 / cqm=0 / deadzone=21,11 / fast_pskip=0 / chroma_qp_offset=-2 / threads=24 / lookahead_threads=4 / sliced_threads=0 / nr=0 / decimate=1 / interlaced=0 / bluray_compat=0 / constrained_intra=0 / bframes=3 / b_pyramid=2 / b_adapt=1 / b_bias=0 / direct=1 / weightb=1 / open_gop=0 / weightp=2 / keyint=250 / keyint_min=23 / scenecut=40 / intra_refresh=0 / rc_lookahead=40 / rc=2pass / mbtree=1 / bitrate=9058 / ratetol=1.0 / qcomp=0.60 / qpmin=0 / qpmax=69 / qpstep=4 / cplxblur=20.0 / qblur=0.5 / ip_ratio=1.40 / aq=1:1.00
Язык : English
Default : Да
Forced : Нет

Аудио #1
Идентификатор : 1
Формат : AC-3
Формат/Информация : Audio Coding 3
Расширение режима : CM (complete main)
Параметр Endianness формата : Big
Идентификатор кодека : A_AC3
Продолжительность : 2 ч. 28 м.
Вид битрейта : Постоянный
Битрейт : 128 Кбит/сек
Каналы : 2 канала
Расположение каналов : Front: L R
Частота : 48,0 КГц
Частота кадров : 31,250 кадров/сек (1536 spf)
Метод сжатия : С потерями
Размер потока : 136 Мбайт (1%)
Default : Да
Forced : Нет

Аудио #2
Идентификатор : 3
Формат : DTS
Формат/Информация : Digital Theater Systems
Режим : 16
Параметр Endianness формата : Big
Идентификатор кодека : A_DTS
Продолжительность : 2 ч. 28 м.
Вид битрейта : Постоянный
Битрейт : 1509 Кбит/сек
Каналы : 6 каналов
Расположение каналов : Front: L C R, Side: L R, LFE
Частота : 48,0 КГц
Частота кадров : 93,750 кадра/сек (512 spf)
Битовая глубина : 24 бит
Метод сжатия : С потерями
Размер потока : 1,56 Гбайт (14%)
Язык : English
Default : Нет
Forced : Нет

Текст
Идентификатор : 4
Формат : UTF-8
Идентификатор кодека : S_TEXT/UTF8
Идентификатор кодека/Информация : UTF-8 Plain Text
Заголовок : English-Forced
Язык : English
Default : Да
Forced : Да

Меню
00:00:00.000 : en:00:00:00.000
00:06:09.119 : en:00:06:09.119
00:13:04.784 : en:00:13:04.784
00:18:58.471 : en:00:18:58.471
00:24:46.777 : en:00:24:46.777
00:28:04.057 : en:00:28:04.057
00:32:15.559 : en:00:32:15.559
00:36:58.591 : en:00:36:58.591
00:41:56.639 : en:00:41:56.639
00:46:13.145 : en:00:46:13.145
00:50:51.924 : en:00:50:51.924
00:53:43.220 : en:00:53:43.220
01:00:21.368 : en:01:00:21.368
01:06:48.213 : en:01:06:48.213
01:10:58.963 : en:01:10:58.963
01:15:14.093 : en:01:15:14.093
01:18:55.648 : en:01:18:55.648
01:26:11.041 : en:01:26:11.041
01:29:40.000 : en:01:29:40.000
01:36:43.548 : en:01:36:43.548
01:41:44.390 : en:01:41:44.390
01:49:06.415 : en:01:49:06.415
01:55:52.821 : en:01:55:52.821
01:59:39.214 : en:01:59:39.214
02:04:19.744 : en:02:04:19.744
02:09:28.511 : en:02:09:28.511
02:14:05.663 : en:02:14:05.663
02:19:42.374 : en:02:19:42.374

Свернуть

Скриншоты
Изображение
Изображение
Изображение
Свернуть
Изображение


Изображение Изображение
_________________
Не ищите меня в "ВКонтакте", в "Одноклассниках" меня нет - я на трекерах сижу!
Не в сети
Профиль  
 Добавлено: 2016-01-26 18:12 (спустя 9 дней)
Стаж: 7 лет
Сообщений: 86
русский перевод как в кинотеатре......а англ. оригинал....
когда чистый звук будет хорошего качества.?????
Не в сети
Профиль  
Начать новую темуОтветить на тему  [ Сообщений: 2 ] 
Вы не можете начинать темы
Вы не можете отвечать на сообщения
Вы не можете редактировать свои сообщения
Вы не можете удалять свои сообщения