Правила форума

  • В этом разделе создание новых тем Запрещено.
  • Для создания новых тем пользуйтесь Корневым разделом DVD и HD фильмы.
Начать новую темуОтветить на тему  [ Сообщений: 5 ] 
Торрент файл
Размер: 5.77 GB • Зарегистрирован: 4 года • Статус: # Сомнительно
Скачан: 333 раза • Желающих скачать: 0 • Поблагодарили: 70 раз
 Раздают: 0  |  0 KB/s  ]   Качают: 0  |  0 KB/s  ] 
 Полного источника не было 41 минута 
Сообщения
 Добавлено: 2012-11-12 12:57
Аватара пользователя
Стаж: 6 лет 5 месяцев
Сообщений: 138
Спасибок: 1118
Лайков: 1
1+1 / Неприкасаемые / Intouchables

Изображение


Год выпуска: 2011
Страна: Франция
Слоган: Sometimes you have to reach into someone else's world to find out what's missing in your own
Жанр: драма, комедия, биография
Продолжительность: 01:52:02
Перевод: Профессиональный (дубляж)
Субтитры: Русские, Французские, Английские

Режиссёр: Оливье Накаш, Эрик Толедано
Сценарист: Оливье Накаш, Эрик Толедано
Продюсер: Николя Дюваль-Адассовски, Лорен Зэйтун, Ян Зеноу
Оператор: Матьё Вадпьед
Композитор: Людовико Эйнауди
В ролях: Франсуа Клюзе, Омар Си, Анн Ле Ни, Одри Флеро, Клотильд Молле, Альба Гайя Крагеде Беллуджи, Сирил Менди, Кристиан Амери, Грегуар Эстерманн, Жозефин де Мо
Описание: Пострадав в результате несчастного случая, богатый аристократ Филипп нанимает в помощники человека, который менее всего подходит для этой работы, — молодого жителя предместья Дрисса, только что освободившегося из тюрьмы. Несмотря на то, что Филипп прикован к инвалидному креслу, Дриссу удается привнести в размеренную жизнь аристократа дух приключений.
Рейтинг MPAA: Рейтинг R (Подростки до 17 лет допускаются на фильм только в сопровождении одного из родителей)
Мировая премьера: 23 сентября 2011
Премьера в России: 26 апреля 2012
Бюджет: € 9 500 000
Кассовые сборы: в мире: $336 300 000

Качество: BDRip, 1080p
Формат: MKV
Видео: 1920x1040 (16:9), 24 fps, 6477 kbps
Аудио #1: Аудио #1: AC-3, 6 ch, 448 kbps (Rus) Аудио #2: AC-3, 6 ch, 448 kbps (Fre) [Профессиональный (дубляж)]
Скриншоты
Изображение
Изображение
Изображение
Изображение
Изображение
Изображение
Свернуть

Знаете ли Вы, что...
В основу фильма была положена реальная история французского бизнесмена и аристократа Филиппа Поццо ди Борго, который остался парализованным после несчастного случая 27 июля 1993 года.
На создание картины режиссёрский дуэт вдохновила увиденная ими в 2004 году документальная лента, в которой рассказывалось о том, как молодой житель предместья был нанят присматривать за парализованным инвалидом Филиппом Поццо ди Борго.
Сам Филипп Поццо ди Борго рассказал о своей истории в вышедшей в 2001 году книге «Второй шанс», которая также послужила источником для сценария картины.
Первоначальным выбором на роль Филиппа Поццо ди Борго был Даниель Отой.
Несмотря на то, что ему пришлось играть совершенно обычного человека, Омар Сай сбросил при подготовке к съёмкам почти пять килограммов веса. Актёр посчитал, что стандартный житель предместья с такой предысторией должен обладать более атлетическим телосложением, чем он.
Перед началом работы над проектом режиссёры Оливье Накаш и Эрик Толедано лично посетили живущего в Марокко Филиппа Поццо ди Борго. Знакомство с ним и произнесенная им речь многократно увеличили их желание поставить фильм на основе его истории. Сам Филипп Поццо ди Борго дал им огромное количество информации и советов практически по каждой сцене картины.
Незадолго до начала съёмок Франсуа Клюзе лично посетил Филиппа Поццо ди Борго с тем, чтобы получить необходимую информацию
для своей роли. В течение некоторого времени актёр наблюдал за его манерой движений, дыхания и речи.
На том, чтобы в первую очередь сделать фильм комедией, а не драмой усиленно настаивал сам Филипп Поццо ди Борго. Он не хотел, чтобы основанный на его жизни фильм стал историей сострадания и жалости.
Омар Сай был первым приглашён на роль в фильме ещё до того, как был написан сценарий.
Свернуть
MediaInfo
Общее
Полное имя: D:\Видео\Фильмы\1+1.2011.BDRip.1080p.Rus.Fre.mkv
Формат: Matroska
Версия формата: Version 2
Размер файла: 5,77 Гбайт
Продолжительность: 1 ч. 52 м.
Общий поток: 7374 Кбит/сек
Название фильма: 1+1 / Intouchables (2011)
Дата кодирования: UTC 2012-05-24 22:34:05
Программа кодирования: mkvmerge v5.5.0 ('Healer') built on Apr 6 2012 21:43:24
Библиотека кодирования: libebml v1.2.3 + libmatroska v1.3.0

Видео
Идентификатор: 1
Формат: AVC
Формат/Информация: Advanced Video Codec
Профиль формата: High@L4.1
Параметр CABAC формата: Да
Параметр ReFrames формата: 4 кадра
Идентификатор кодека: V_MPEG4/ISO/AVC
Продолжительность: 1 ч. 52 м.
Битрейт: 6477 Кбит/сек
Ширина: 1920 пикселей
Высота: 1040 пикселей
Соотношение сторон: 1,85:1
Режим частоты кадров: Постоянный
Частота кадров: 24,000 кадра/сек
Цветовое пространство: YUV
Субдискретизация насыщенности: 4:2:0
Битовая глубина: 8 бит
Тип развёртки: Прогрессивная
Бит/(Пиксели*Кадры): 0.135
Размер потока: 4,95 Гбайт (86%)
Заголовок: Release by AlexKa
Библиотека кодирования: x264 core 125 r2200 999b753
Настройки программы: cabac=1 / ref=4 / deblock=1:0:0 / analyse=0x3:0x133 / me=umh / subme=10 / psy=1 / psy_rd=1.00:0.00 / mixed_ref=1 / me_range=32 / chroma_me=1 / trellis=2 / 8x8dct=1 / cqm=0 / deadzone=21,11 / fast_pskip=0 / chroma_qp_offset=-2 / threads=12 / lookahead_threads=2 / sliced_threads=0 / nr=0 / decimate=0 / interlaced=0 / bluray_compat=0 / constrained_intra=0 / bframes=5 / b_pyramid=2 / b_adapt=2 / b_bias=0 / direct=3 / weightb=1 / open_gop=0 / weightp=2 / keyint=240 / keyint_min=24 / scenecut=40 / intra_refresh=0 / rc_lookahead=60 / rc=2pass / mbtree=1 / bitrate=6477 / ratetol=1.0 / qcomp=0.60 / qpmin=0 / qpmax=69 / qpstep=4 / cplxblur=20.0 / qblur=0.5 / ip_ratio=1.40 / aq=1:1.00
Язык: French
Default: Да
Forced: Нет

Аудио #1
Идентификатор: 2
Формат: AC-3
Формат/Информация: Audio Coding 3
Расширение режима: CM (complete main)
Параметр Endianness формата: Big
Идентификатор кодека: A_AC3
Продолжительность: 1 ч. 52 м.
Вид битрейта: Постоянный
Битрейт: 448 Кбит/сек
Каналы: 6 каналов
Расположение каналов: Front: L C R, Side: L R, LFE
Частота: 48,0 КГц
Битовая глубина: 16 бит
Метод сжатия: С потерями
Размер потока: 359 Мбайт (6%)
Заголовок: Rus
Язык: Russian
Default: Да
Forced: Нет

Аудио #2
Идентификатор: 3
Формат: AC-3
Формат/Информация: Audio Coding 3
Расширение режима: CM (complete main)
Параметр Endianness формата: Big
Идентификатор кодека: A_AC3
Продолжительность: 1 ч. 52 м.
Вид битрейта: Постоянный
Битрейт: 448 Кбит/сек
Каналы: 6 каналов
Расположение каналов: Front: L C R, Side: L R, LFE
Частота: 48,0 КГц
Битовая глубина: 16 бит
Метод сжатия: С потерями
Размер потока: 359 Мбайт (6%)
Заголовок: Fre
Язык: French
Default: Нет
Forced: Нет

Текст #1
Идентификатор: 4
Формат: UTF-8
Идентификатор кодека: S_TEXT/UTF8
Идентификатор кодека/Информация: UTF-8 Plain Text
Заголовок: Rus
Язык: Russian
Default: Нет
Forced: Нет

Текст #2
Идентификатор: 5
Формат: UTF-8
Идентификатор кодека: S_TEXT/UTF8
Идентификатор кодека/Информация: UTF-8 Plain Text
Заголовок: Fre
Язык: French
Default: Нет
Forced: Нет

Текст #3
Идентификатор: 6
Формат: UTF-8
Идентификатор кодека: S_TEXT/UTF8
Идентификатор кодека/Информация: UTF-8 Plain Text
Заголовок: Eng
Язык: English
Default: Нет
Forced: Нет
Свернуть


Последний раз редактировалось Leonid_Stavtsov 2012-11-12 14:05, всего редактировалось 5 раз(а).
Не в сети
Профиль  
 Добавлено: 2012-11-12 13:17 (спустя 19 минут)
Руководитель релиз-группы
Аватара пользователя
Стаж: 7 лет 4 месяца
Возраст: 31
Сообщений: 3407
Спасибок: 46728
Лайков: 5
Leonid_Stavtsov
Для DVD и HD-разделов необходимы развернутые технические данные:
Для HD: Отчет BDInfo→ (после нажатия кнопки «scan bitrates» и окончания сканирования) или MediaInfo→ ( весь текст из режима view (вид) → text (текст).) (под спойлером)

Для HD и HQRip-ов необходимы скриншоты в формате PNG, для остальных форматов PNG так же рекомендуется.
Не в сети
Профиль  
 Добавлено: 2012-11-12 14:06 (спустя 49 минут)
Аватара пользователя
Стаж: 6 лет 5 месяцев
Сообщений: 138
Спасибок: 1118
Лайков: 1
askboy
Отредактировал!
_________________
Изображение
Не в сети
Профиль  
 Добавлено: 2012-11-25 19:59 (спустя 13 дней)
Стаж: 7 лет 4 месяца
Сообщений: 19
:bra_vo:
Не в сети
Профиль  
 Добавлено: 2015-01-05 09:23 (спустя 2 года 1 месяц)
Аватара пользователя
Стаж: 4 года 3 месяца
Сообщений: 77
Спасибок: 219
Лайков: 5
Раздайте,пожалуйста!!!
Не в сети
Профиль  
Начать новую темуОтветить на тему  [ Сообщений: 5 ] 
Вы не можете начинать темы
Вы не можете отвечать на сообщения
Вы не можете редактировать свои сообщения
Вы не можете удалять свои сообщения