Правила форума

  • В этом разделе создание новых тем Запрещено.
  • Для создания новых тем пользуйтесь Корневым разделом DVD и HD фильмы.
Начать новую темуОтветить на тему  [ 1 сообщение ] 
Торрент файл
Размер: 4.07 GB • Зарегистрирован: 3 года 10 месяцев • Статус: Проверено
Скачан: 43 раза • Желающих скачать: 0 • Поблагодарили: 7 раз
 Раздают: 0  |  0 KB/s  ]   Качают: 0  |  0 KB/s  ] 
 Полного источника не было 10 месяцев 
Сообщения
 Добавлено: 2013-01-24 23:05
Руководитель релиз-группы
Аватара пользователя
Стаж: 7 лет 4 месяца
Возраст: 31
Сообщений: 3407
Спасибок: 46728
Лайков: 5
Изображение

10 лет спустя
10 Years


Год выпуска: 2012
Страна: США
Слоган: «У любви нет срока давности»
Жанр: драма, мелодрама, комедия
Продолжительность: 01:40:43
Перевод: Профессиональный (полное дублирование) [лицензия]
Режиссер: Джеми Линден
Сценарий: Джеми Линден
Продюсер: Марти Бауэн, Рейд Каролин, Вик Годфри, Ченнинг Татум, Эрик Горс
Оператор: Стивен Фирберг
Композитор: Чад Фишер
В ролях: Ченнинг Татум, Дженна Деван, Джастин Лонг, Макс Мингелла, Оскар Айзек, Крис Прэтт, Эри Грейнор, Дэниэл Скотт Лампкин мл., Лили Лампкин, Скотт Портер, Эйко Ниджо, Майк Миллер
Сборы в США: $203 373
Описание: 10 лет спустя бывшие одноклассники собираются, чтобы оторваться по полной и поставить на уши весь город. Море выпивки, веселья и воспоминаний, но теперь все по-взрослому! Красавчик Джейк прибыл на вечеринку вместе с ослепительной девушкой, они - идеальная пара, и они счастливы в любви. Но этой ночью на глаза Джейку попадается его первая любовь, прошлое притягивает его и стучится в память с новой силой. Сможет ли он сделать правильный выбор? И правда ли, что у любви нет срока давности?
Изображение
MPAA: Изображение
Мировая премьера: 14 сентября 2012
Релиз на DVD: 24 января 2013, «Флагман-Трейд»
Релиз на Blu-ray: 24 января 2013, «Флагман-Трейд»
Релиз: Изображение Раздача группы: Изображение
Качество: BDRip, 720p
Формат: MKV
Видео: 1280x720, 23.976 fps, 4584 Kbps
Аудио: AC3; 448 Kbps; CBR; 6 ch Russian
Аудио: AC3; 640 Kbps; CBR; 6 ch English
Субтитры: английские
Изображение
mediainfo
Формат : Matroska
Версия формата : Version 2
Размер файла : 4,07 Гбайт
Продолжительность : 1 ч. 40 м.
Общий поток : 5787 Кбит/сек
Название фильма : IRONCLUB
Дата кодирования : UTC 2013-01-23 19:11:21
Программа кодирования : mkvmerge v5.2.0 ('I can't explain') built on Dec 18 2011 18:12:03
Библиотека кодирования : libebml v1.2.3 + libmatroska v1.3.0

Видео
Идентификатор : 1
Формат : AVC
Формат/Информация : Advanced Video Codec
Профиль формата : High@L4.1
Параметр CABAC формата : Да
Параметр ReFrames формата : 9 кадров
Идентификатор кодека : V_MPEG4/ISO/AVC
Продолжительность : 1 ч. 40 м.
Битрейт : 4584 Кбит/сек
Ширина : 1280 пикселей
Высота : 720 пикселей
Соотношение сторон : 16:9
Частота кадров : 23,976 кадра/сек
Цветовое пространство : YUV
Субдискретизация насыщенности : 4:2:0
Битовая глубина : 8 бит
Тип развёртки : Прогрессивная
Бит/(Пиксели*Кадры) : 0.207
Размер потока : 3,22 Гбайт (79%)
Заголовок : 10.Years.2011.720p.BluRay.DD5.1.x264-EbP
Язык : English

Аудио #1
Идентификатор : 2
Формат : AC-3
Формат/Информация : Audio Coding 3
Расширение режима : CM (complete main)
Идентификатор кодека : A_AC3
Продолжительность : 1 ч. 40 м.
Вид битрейта : Постоянный
Битрейт : 448 Кбит/сек
Каналы : 6 каналов
Расположение каналов : Front: L C R, Side: L R, LFE
Частота : 48,0 КГц
Битовая глубина : 16 бит
Метод сжатия : С потерями
Размер потока : 323 Мбайт (8%)
Заголовок : DD 5.1 @ 448 kbps - Dub, R5
Язык : Russian

Аудио #2
Идентификатор : 3
Формат : AC-3
Формат/Информация : Audio Coding 3
Расширение режима : CM (complete main)
Идентификатор кодека : A_AC3
Продолжительность : 1 ч. 40 м.
Вид битрейта : Постоянный
Битрейт : 640 Кбит/сек
Каналы : 6 каналов
Расположение каналов : Front: L C R, Side: L R, LFE
Частота : 48,0 КГц
Битовая глубина : 16 бит
Метод сжатия : С потерями
Размер потока : 461 Мбайт (11%)
Заголовок : DD 5.1 @ 640 kbps
Язык : English

Текст
Идентификатор : 4
Формат : UTF-8
Идентификатор кодека : S_TEXT/UTF8
Идентификатор кодека/Информация : UTF-8 Plain Text
Язык : English

Меню
00:00:00.000 : en:00:00:00.000
00:06:18.712 : en:00:06:18.712
00:13:34.522 : en:00:13:34.522
00:20:40.030 : en:00:20:40.030
00:33:22.792 : en:00:33:22.792
00:44:20.032 : en:00:44:20.032
00:53:14.983 : en:00:53:14.983
00:59:50.045 : en:00:59:50.045
01:07:19.160 : en:01:07:19.160
01:16:28.584 : en:01:16:28.584
01:25:19.740 : en:01:25:19.740
01:36:04.133 : en:01:36:04.133

Свернуть
"Знаете ли Вы, что..."
  • Крис Пайн, Анна Фэрис, Меган Фокс и Тейлор Момсен рассматривались на различные роли в фильме на ранних стадиях его создания.
Свернуть
Скриншоты

Изображение

Изображение

Изображение
Свернуть
Не в сети
Профиль  
Начать новую темуОтветить на тему  [ 1 сообщение ] 
Вы не можете начинать темы
Вы не можете отвечать на сообщения
Вы не можете редактировать свои сообщения
Вы не можете удалять свои сообщения