Правила форума

  • В этом разделе создание новых тем Запрещено.
  • Для создания новых тем пользуйтесь Корневым разделом DVD и HD фильмы.
Начать новую темуОтветить на тему  [ 1 сообщение ] 
Торрент файл
Размер: 8.45 GB • Зарегистрирован: 3 года 10 месяцев • Статус: Проверено
Скачан: 82 раза • Желающих скачать: 0 • Поблагодарили: 22 раза
 Раздают: 0  |  0 KB/s  ]   Качают: 1  |  0 KB/s  ] 
 Полного источника не было 7 месяцев 
Сообщения
 Добавлено: 2013-01-27 03:29
Аватара пользователя
Стаж: 9 лет
Сообщений: 7910
Спасибок: 122090
Лайков: 1190
10 лет спустя / 10 Years

«У любви нет срока давности»

Изображение


Год выпуска: 2012
Страна: Изображение США
Жанр: драма, мелодрама, комедия
Продолжительность: 01:40:43
Перевод: Профессиональный (полное дублирование)[Лицензия]


Режиссёр: Джеми Линден
Сценарист: Джеми Линден
Продюсер: Марти Бауэн, Рейд Каролин, Вик Годфри
Оператор: Стивен Фирберг
Композитор: Чад Фишер

В ролях: Ченнинг Татум, Дженна Деван, Джастин Лонг, Макс Мингелла, Оскар Айзек, Крис Прэтт, Эри Грейнор, Дэниэл Скотт Лампкин мл., Лили Лампкин, Скотт Портер

Описание: 10 лет спустя бывшие одноклассники собираются, чтобы оторваться по полной и поставить на уши весь город. Море выпивки, веселья и воспоминаний, но теперь все по-взрослому! Красавчик Джейк прибыл на вечеринку вместе с ослепительной девушкой, они — идеальная пара, и они счастливы в любви. Но этой ночью на глаза Джейку попадается его первая любовь, прошлое притягивает его и стучится в память с новой силой. Сможет ли он сделать правильный выбор? И правда ли, что у любви нет срока давности?

Изображение Изображение

Качество: BDRip (1080p)
Формат: Matroska
Видео: MPEG-4 AVC, 10900 Кбит/с, 1920x1080, 23,976 кадра/сек
Аудио №1: Русский (АС3, 6 ch, 448 Кбит/с)
Аудио №2: Английский (АС3, 6 ch, 640 Кбит/с)

MediaInfo
Общее
Уникальный идентификатор : 235272011695240156922985662276680652608 (0xB0FFBDC1E7BBD815ABB3E9BC5DB59740)
Полное имя : H:\10.Years.2011.1080p.nntt.org.mkv
Формат : Matroska
Версия формата : Version 2
Размер файла : 8,45 Гбайт
Продолжительность : 1 ч. 40 м.
Общий поток : 12,0 Мбит/сек
Дата кодирования : UTC 2013-01-27 00:17:12
Программа кодирования : mkvmerge v5.7.0 ('The Whirlwind') built on Jul 29 2012 15:12:35
Библиотека кодирования : libebml v1.2.3 + libmatroska v1.3.0

Видео
Идентификатор : 1
Формат : AVC
Формат/Информация : Advanced Video Codec
Профиль формата : High@L4.1
Параметр CABAC формата : Да
Параметр ReFrames формата : 4 кадра
Идентификатор кодека : V_MPEG4/ISO/AVC
Продолжительность : 1 ч. 40 м.
Битрейт : 10,9 Мбит/сек
Ширина : 1920 пикселей
Высота : 1080 пикселей
Соотношение сторон : 16:9
Режим частоты кадров : Постоянный
Частота кадров : 23,976 кадра/сек
Цветовое пространство : YUV
Субдискретизация насыщенности : 4:2:0
Битовая глубина : 8 бит
Тип развёртки : Прогрессивная
Бит/(Пиксели*Кадры) : 0.220
Размер потока : 7,52 Гбайт (89%)
Заголовок : 10.Years.2011.BluRay.1080p
Библиотека кодирования : x264 core 129 r2230+696+36 4446aa2 tMod+MixAQ [8-bit@4:2:0 X86_64]
Настройки программы : cabac=1 / ref=4 / deblock=1:-3:-3 / analyse=0x3:0x113 / me=umh / subme=11 / psy=1 / fade_compensate=0.20 / psy_rd=1.10:0.15 / mixed_ref=1 / me_range=48 / chroma_me=1 / trellis=2 / 8x8dct=1 / cqm=0 / deadzone=21,11 / fast_pskip=0 / chroma_qp_offset=-2 / threads=12 / lookahead_threads=2 / sliced_threads=0 / nr=0 / decimate=0 / interlaced=0 / bluray_compat=0 / constrained_intra=0 / fgo=5 / bframes=8 / b_pyramid=2 / b_adapt=2 / b_bias=0 / direct=3 / weightb=1 / open_gop=0 / weightp=2 / keyint=360 / keyint_min=1 / scenecut=40 / intra_refresh=0 / rc_lookahead=240 / rc=2pass / mbtree=1 / bitrate=10927 / ratetol=1.0 / qcomp=0.70 / qpmin=0 / qpmax=69 / qpstep=4 / cplxblur=20.0 / qblur=0.5 / vbv_maxrate=40000 / vbv_bufsize=30000 / nal_hrd=none / ip_ratio=1.40 / aq=3 / aq-strength=0.90 / aq-sensitivity=10.00 / aq-ifactor=1.00 / aq-pfactor=1.00 / aq-bfactor=1.00 / aq2=0
Язык : English
Default : Да
Forced : Нет

Аудио #1
Идентификатор : 2
Формат : AC-3
Формат/Информация : Audio Coding 3
Расширение режима : CM (complete main)
Параметр Endianness формата : Big
Идентификатор кодека : A_AC3
Продолжительность : 1 ч. 40 м.
Вид битрейта : Постоянный
Битрейт : 448 Кбит/сек
Каналы : 6 каналов
Расположение каналов : Front: L C R, Side: L R, LFE
Частота : 48,0 КГц
Битовая глубина : 16 бит
Метод сжатия : С потерями
Размер потока : 323 Мбайт (4%)
Язык : Russian
Default : Да
Forced : Нет

Аудио #2
Идентификатор : 3
Формат : AC-3
Формат/Информация : Audio Coding 3
Расширение режима : CM (complete main)
Параметр Endianness формата : Big
Идентификатор кодека : A_AC3
Продолжительность : 1 ч. 40 м.
Вид битрейта : Постоянный
Битрейт : 640 Кбит/сек
Каналы : 6 каналов
Расположение каналов : Front: L C R, Side: L R, LFE
Частота : 48,0 КГц
Битовая глубина : 16 бит
Метод сжатия : С потерями
Размер потока : 461 Мбайт (5%)
Заголовок : ENG DD5.1 640kbps
Язык : English
Default : Нет
Forced : Нет

Меню
00:00:00.000 : :Chapter 01
00:06:18.712 : :Chapter 02
00:13:34.521 : :Chapter 03
00:20:40.030 : :Chapter 04
00:33:22.792 : :Chapter 05
00:44:20.032 : :Chapter 06
00:53:14.983 : :Chapter 07
00:59:50.045 : :Chapter 08
01:07:19.160 : :Chapter 09
01:16:28.584 : :Chapter 10
01:25:19.740 : :Chapter 11
01:36:04.133 : :Chapter 12
Свернуть
Знаете ли вы, что...
Крис Пайн, Анна Фэрис, Меган Фокс и Тейлор Момсен рассматривались на различные роли в фильме на ранних стадиях его создания.
Свернуть
Скриншоты
Изображение
Изображение
Изображение
Изображение
Изображение
Свернуть
Не в сети
Профиль  
Начать новую темуОтветить на тему  [ 1 сообщение ] 
Вы не можете начинать темы
Вы не можете отвечать на сообщения
Вы не можете редактировать свои сообщения
Вы не можете удалять свои сообщения