Правила форума

  • В этом разделе создание новых тем Запрещено.
  • Для создания новых тем пользуйтесь Корневым разделом DVD и HD фильмы.
Начать новую темуОтветить на тему  [ Сообщений: 2 ] 
Торрент файл
Размер: 7.8 GB • Зарегистрирован: 5 лет 9 месяцев • Статус: Проверено
Скачан: 30 раз • Желающих скачать: 0 • Поблагодарили: 8 раз
 Раздают: 0  |  0 KB/s  ]   Качают: 0  |  0 KB/s  ] 
 Полного источника не было 8 месяцев 
Сообщения
 Добавлено: 2011-02-04 00:06
Аватара пользователя
Стаж: 8 лет 11 месяцев
Возраст: 31
Сообщений: 622
Спасибок: 717
Лайков: 4
11:14 (Одиннадцать четырнадцать) / 11:14 (Eleven Fourteen)

Изображение


Год выпуска: 2003
Страна: США
Слоган: «A dark comedy with killer timing»
Жанр: Триллер
Продолжительность: 01:25:42
Перевод: Профессиональный (полное дублирование)
Режиссёр: Грег Мэркс
Продюсер: Марк Дэймон, Трип Винсон, Бо Флинн
Композитор: Клинт Мэнселл
В ролях: Рэйчел Ли Кук, Барбара Херши, Патрик Суэйзи, Хилари Суэнк, Генри Томас, Блейк Херон, Кларк Грегг, Шоун Хэтэси, Старк Сэндс, Колин Хэнкс, Бен Фостер
Описание: Миддлтон - очень миленькое провинциальное местечко. Одной очень странной ночью по шоссе на большой скорости движется автомобиль. За рулем изрядно подвыпивший парень говорит с кем-то по телефону. Громко орёт радио. На часах 11:13. Вдруг внезапно на лобовое стекло падают чьи-то части тела. Время - 11:14… Добро пожаловать в Миддлтон!
Рейтинг MPAA: Рейтинг R (Подростки до 17 лет допускаются на фильм только в сопровождении одного из родителей)
Мировая премьера: 16 мая 2003
Премьера в России: 9 сентября 2004
Бюджет: $6 000 000
Сборы в России: $295 000

Изображение

Качество: BDRip, 1080p
Формат: MKV
Видео кодек: H264 (AVC)
Аудио кодек: AC3

Видео: 1920x1080, x264, 23.976 fps, ~ 12000 kbps
Аудио #1: Русский AC3 - 640 kb/s;
Аудио #2: Английский AC3 - 640 kb/s

MediaInfo
Format                           : Matroska
File size                        : 7.80 GiB
Duration                         : 1h 25mn
Overall bit rate                 : 13.0 Mbps
Writing application              : AVI-Mux GUI 1.17.8.3, Feb 16 201019:42:50
Writing library                  : matroska muxer by Alexander Noe, build date Feb 16 2010

Video
ID                               : 1
Format                           : AVC
Format/Info                      : Advanced Video Codec
Format profile                   : High@L5.0
Format settings, CABAC           : Yes
Format settings, ReFrames        : 6 frames
Format settings, GOP             : N=1
Codec ID                         : V_MPEG4/ISO/AVC
Duration                         : 1h 25mn
Bit rate                         : 11.7 Mbps
Width                            : 1 920 pixels
Height                           : 1 080 pixels
Display aspect ratio             : 16:9
Frame rate                       : 23.976 fps
Color space                      : YUV
Chroma subsampling               : 4:2:0
Bit depth                        : 8 bits
Scan type                        : Progressive
Bits/(Pixel*Frame)               : 0.236
Stream size                      : 6.87 GiB (88%)
Writing library                  : x264 core 64 r985M e256ea1
Encoding settings                : cabac=1 / ref=6 / deblock=1:-3:-3 / analyse=0x3:0x133 / me=umh / subme=7 / psy_rd=1.0:0.0 / brdo=1 / mixed_ref=1 / me_range=32 / chroma_me=1 / trellis=0 / 8x8dct=1 / cqm=2 / deadzone=8,6 / chroma_qp_offset=-2 / threads=12 / nr=0 / decimate=0 / mbaff=0 / bframes=16 / b_pyramid=1 / b_adapt=1 / b_bias=0 / direct=3 / wpredb=1 / bime=1 / keyint=250 / keyint_min=25 / scenecut=40(pre) / rc=2pass / bitrate=11734 / ratetol=1.0 / qcomp=0.60 / qpmin=10 / qpmax=51 / qpstep=4 / cplxblur=20.0 / qblur=0.5 / ip_ratio=1.40 / pb_ratio=1.30 / aq=1:1.00
Language                         : English

Audio #1
ID                               : 2
Format                           : AC-3
Format/Info                      : Audio Coding 3
Mode extension                   : CM (complete main)
Codec ID                         : A_AC3
Duration                         : 1h 25mn
Bit rate mode                    : Constant
Bit rate                         : 640 Kbps
Channel(s)                       : 6 channels
Channel positions                : Front: L C R, Side: L R, LFE
Sampling rate                    : 48.0 KHz
Bit depth                        : 16 bits
Stream size                      : 392 MiB (5%)
Title                            : ru
Language                         : English

Audio #2
ID                               : 3
Format                           : AC-3
Format/Info                      : Audio Coding 3
Mode extension                   : CM (complete main)
Codec ID                         : A_AC3
Duration                         : 1h 25mn
Bit rate mode                    : Constant
Bit rate                         : 640 Kbps
Channel(s)                       : 6 channels
Channel positions                : Front: L C R, Side: L R, LFE
Sampling rate                    : 48.0 KHz
Bit depth                        : 16 bits
Stream size                      : 392 MiB (5%)
Title                            : en
Language                         : English
Свернуть


Скриншоты
Изображение
Изображение
Изображение
Изображение
Изображение
Свернуть
_________________
Изображение
Hardware:
Desktop:
CPU: Intel Core i5 2500K
Cooler: Thermalright HR-02 Macho
MB: GA-Z68XP-UD4 (rev. 1.3)
Video: Zotac GTX460 AMP!
RAM: DDR3 (PC3-12800) CORSAIR XMS3 2x 4GB
HDD: WD7500AZEX
Case: THERMALTAKE Level 10 GTS + CM GX-550W
Sound: Sven Royal 2 + Creative X-FI XtreamGamer + Creative Aurvana Live!

NAS:
MB:: GA-GC330UD
RAM: DDR2 (PC-6400) Hynix 2GB
HDD: WD WD5001AALS
Свернуть


Последний раз редактировалось Sn@ke 2011-02-05 23:05, всего редактировалось 1 раз.
Не в сети
Профиль  
 Добавлено: 2011-02-05 21:23 (спустя 1 день 21 час)
Аватара пользователя
Стаж: 8 лет 10 месяцев
Сообщений: 2032
Спасибок: 53740
Лайков: 6
Скриншоты не соответствуют параметрам выложенного видео.
Не в сети
Профиль  
Начать новую темуОтветить на тему  [ Сообщений: 2 ] 
Вы не можете начинать темы
Вы не можете отвечать на сообщения
Вы не можете редактировать свои сообщения
Вы не можете удалять свои сообщения