Правила форума

  • В этом разделе создание новых тем Запрещено.
  • Для создания новых тем пользуйтесь Корневым разделом DVD и HD фильмы.
Начать новую темуОтветить на тему  [ Сообщений: 3 ] 
Торрент файл
Размер: 13.02 GB • Зарегистрирован: 2 года 9 месяцев • Статус: Проверено
Скачан: 623 раза • Желающих скачать: 0 • Поблагодарили: 146 раз
 Раздают: 3  |  0 KB/s  ]   Качают: 0  |  0 KB/s  ] 
Сообщения
 Добавлено: 2014-02-21 09:51
Аватара пользователя
Стаж: 9 лет 1 месяц
Сообщений: 7928
Спасибок: 122120
Лайков: 1191
12 лет рабства / 12 Years a Slave

«The extraordinary true story of Solomon Northup»

Изображение


Год выпуска: 2013
Страна: Изображение США Изображение Великобритания
Жанр: драма, биография, история
Продолжительность: 02:13:59
Субтитры: Русские, английские
Перевод: Профессиональный (полное дублирование) [Лицензия]


Режиссер: Стив МакКуин
Сценарий: Джон Ридли, Соломон Нортап
Продюсер: Деде Гарднер, Энтони Катагас, Джереми Клейнер
Оператор: Шон Боббитт
Композитор: Ханс Циммер

В ролях: Чиветел Эджиофор, Майкл Фассбендер, Бенедикт Камбербэтч, Пол Дано, Пол Джаматти, Лупита Нионго, Сара Полсон, Брэд Питт, Элфри Вудард, Кувенжане Уоллис

Описание: Соломон Нортап был женатым и образованным мужчиной, который жил и работал в Нью-Йорке, когда два человека однажды предложили ему привлекательную работу в Вашингтоне. По прибытии он был похищен, стал рабом и влачил жалкую жизнь, переходя от одного хозяина к другому.

Изображение Изображение

Раздача группы: Изображение

Качество: BDRip (1080p)
Формат: Matroska
Видео: MPEG-4 AVC, 12 Мбит/с, 1920x800, 23.976 кадр/с
Аудио №1: Русский (AC3, 48,0 КГц, 6 ch, 384 Кбит/c)
Аудио №2: Английский (DTS, 48,0 КГц, 6 ch, 1510 Кбит/c)

MediaInfo
Общее
Уникальный идентификатор : 195255460547922283385051550683295872066 (0x92E4D575B701E20FAC3C6E09300B7442)
Полное имя : C:\Фильмы\12.Years.A.Slave.2013.x264.BDRip.(1080p).ExKinoRay.mkv
Формат : Matroska
Версия формата : Version 2
Размер файла : 13,0 Гбайт
Продолжительность : 2 ч. 14 м.
Общий поток : 13,9 Мбит/сек
Название фильма : 12 лет рабства.2013.Rip by: ollan
Дата кодирования : UTC 2014-02-21 02:11:54
Программа кодирования : mkvmerge v5.6.0 ('Kenya Kane') built on May 27 2012 16:44:04
Библиотека кодирования : libebml v1.2.3 + libmatroska v1.3.0

Видео
Идентификатор : 1
Формат : AVC
Формат/Информация : Advanced Video Codec
Профиль формата : High@L4.1
Параметр CABAC формата : Да
Параметр ReFrames формата : 4 кадра
Идентификатор кодека : V_MPEG4/ISO/AVC
Продолжительность : 2 ч. 14 м.
Битрейт : 12,0 Мбит/сек
Ширина : 1920 пикселей
Высота : 800 пикселей
Соотношение сторон : 2,40:1
Режим частоты кадров : Постоянный
Частота кадров : 23,976 кадра/сек
Цветовое пространство : YUV
Субдискретизация насыщенности : 4:2:0
Битовая глубина : 8 бит
Тип развёртки : Прогрессивная
Бит/(Пиксели*Кадры) : 0.326
Размер потока : 11,0 Гбайт (84%)
Библиотека кодирования : x264 core 125 r2200 999b753
Настройки программы : cabac=1 / ref=4 / deblock=1:-3:-3 / analyse=0x3:0x133 / me=umh / subme=11 / psy=1 / psy_rd=1.00:0.10 / mixed_ref=1 / me_range=32 / chroma_me=1 / trellis=2 / 8x8dct=1 / cqm=0 / deadzone=21,11 / fast_pskip=0 / chroma_qp_offset=-3 / threads=12 / lookahead_threads=2 / sliced_threads=0 / nr=0 / decimate=0 / interlaced=0 / bluray_compat=0 / constrained_intra=0 / bframes=9 / b_pyramid=2 / b_adapt=2 / b_bias=0 / direct=3 / weightb=1 / open_gop=0 / weightp=2 / keyint=240 / keyint_min=23 / scenecut=40 / intra_refresh=0 / rc_lookahead=40 / rc=2pass / mbtree=1 / bitrate=12000 / ratetol=1.0 / qcomp=0.60 / qpmin=0 / qpmax=69 / qpstep=4 / cplxblur=20.0 / qblur=0.5 / ip_ratio=1.40 / aq=1:1.00
Default : Да
Forced : Нет

Аудио #1
Идентификатор : 2
Формат : AC-3
Формат/Информация : Audio Coding 3
Расширение режима : CM (complete main)
Параметр Endianness формата : Big
Идентификатор кодека : A_AC3
Продолжительность : 2 ч. 14 м.
Вид битрейта : Постоянный
Битрейт : 384 Кбит/сек
Каналы : 6 каналов
Расположение каналов : Front: L C R, Side: L R, LFE
Частота : 48,0 КГц
Битовая глубина : 16 бит
Метод сжатия : С потерями
Размер потока : 369 Мбайт (3%)
Заголовок : Дублированный [iTunes Russian]
Язык : Russian
Default : Да
Forced : Нет

Аудио #2
Идентификатор : 3
Формат : DTS
Формат/Информация : Digital Theater Systems
Режим : 16
Параметр Endianness формата : Big
Идентификатор кодека : A_DTS
Продолжительность : 2 ч. 14 м.
Вид битрейта : Постоянный
Битрейт : 1509 Кбит/сек
Каналы : 6 каналов
Расположение каналов : Front: L C R, Side: L R, LFE
Частота : 48,0 КГц
Битовая глубина : 24 бит
Метод сжатия : С потерями
Размер потока : 1,41 Гбайт (11%)
Язык : English
Default : Нет
Forced : Нет

Текст #1
Идентификатор : 4
Формат : UTF-8
Идентификатор кодека : S_TEXT/UTF8
Идентификатор кодека/Информация : UTF-8 Plain Text
Язык : Russian
Default : Нет
Forced : Нет

Текст #2
Идентификатор : 5
Формат : UTF-8
Идентификатор кодека : S_TEXT/UTF8
Идентификатор кодека/Информация : UTF-8 Plain Text
Язык : English
Default : Нет
Forced : Нет

Меню
00:00:00.000 : en:00:00:00.000
00:06:02.862 : en:00:06:02.862
00:10:13.530 : en:00:10:13.530
00:12:58.778 : en:00:12:58.778
00:16:24.650 : en:00:16:24.650
00:19:18.866 : en:00:19:18.866
00:25:01.709 : en:00:25:01.709
00:27:48.458 : en:00:27:48.458
00:32:07.968 : en:00:32:07.968
00:36:07.874 : en:00:36:07.874
00:39:39.127 : en:00:39:39.127
00:45:16.714 : en:00:45:16.714
00:47:36.145 : en:00:47:36.145
00:52:26.977 : en:00:52:26.977
00:54:34.188 : en:00:54:34.188
00:59:34.029 : en:00:59:34.029
01:01:47.704 : en:01:01:47.704
01:06:04.544 : en:01:06:04.544
01:09:55.691 : en:01:09:55.691
01:12:47.989 : en:01:12:47.989
01:15:27.690 : en:01:15:27.690
01:18:31.874 : en:01:18:31.874
01:21:08.489 : en:01:21:08.489
01:23:46.688 : en:01:23:46.688
01:26:25.972 : en:01:26:25.972
01:28:18.877 : en:01:28:18.877
01:31:22.519 : en:01:31:22.519
01:34:10.144 : en:01:34:10.144
01:38:14.013 : en:01:38:14.013
01:41:50.313 : en:01:41:50.313
01:45:18.896 : en:01:45:18.896
01:53:09.908 : en:01:53:09.908
01:54:46.505 : en:01:54:46.505
02:00:22.215 : en:02:00:22.215
02:04:07.398 : en:02:04:07.398
02:07:25.721 : en:02:07:25.721
Свернуть
Знаете ли вы, что...
Фильм снят по мотивам автобиографии Соломона Нортапа «12 лет рабства» (Twelve Years a Slave, 1853).

Этот же сюжет, основанный на мемуарах, написанных в 1853 году, использовался в телевизионном фильме «Одиссея Соломона Нортапа» (1984).

Съемки фильма заняли 35 дней. Они проходили на плантации в Вашери, штат Луизиана, недалеко от того места, где содержался реальный Нортап. Порт Нового Орлеана и Саратога воссоздали в декорациях.

Спустя год после возвращения домой Соломон Нортап опубликовал свои мемуары. Книга вышла в свет за 9 лет до Гражданской войны, стала бестселлером и вызвала огромную дискуссию в американском обществе. Однако в 20 веке она не переиздавалась и была забыта до тех пор, пока Сью Икин в 1968 году не написала работу, документально подтвердившую историю Нортапа. Режиссер Стив МакКуин узнал о существовании мемуаров Нортапа от своей жены.

В этом фильме снялся актер Таран Киллэм, который часто пародирует Брэда Питта на шоу «Субботним вечером в прямом эфире» (1975). И хотя Брэд Питт тоже снялся в этом фильме, на съемочной площадке актеры ни разу не пересекались. Компания Питта — Plan B — занималась продюсированием фильма, сам же актер исполнил в нем лишь небольшую роль.

В одной из сцен можно заметить в болоте водяной гаицинт (эйхорния), водное растение, произрастающее в Южной Америке. Эти растения были ввезены в Северную Америку только после 1884 года.

Свернуть
Скриншоты
Изображение
Изображение
Изображение
Свернуть
 McKot нравится это.
В сети
Профиль  
 Добавлено: 2014-02-23 13:17 (спустя 2 дня 3 часа)
Кинокомментатор
Аватара пользователя
Стаж: 9 лет
Сообщений: 1331
Лайков: 52
классное кино! то что надо прямо) Джанго без Джанго! всё по серьёзке, всё без прикрас! стоит ли расписывать? нет! стоит смотреть! 8/10
 griinder нравится это.
Не в сети
Профиль  
 Добавлено: 2014-03-09 17:54 (спустя 14 дней)
Аватара пользователя
Стаж: 7 лет
Возраст: 30
Сообщений: 507
Спасибок: 1931
Очередное кино про грязных нигеров. Великолепная игра актеров, неплохой сценарий, видно, что деньги на создание фильма потратили не зря. Однако тема нигеров, рабства в целом уже приелась.
_________________
Изображение
Не в сети
Профиль  
Начать новую темуОтветить на тему  [ Сообщений: 3 ] 
Вы не можете начинать темы
Вы не можете отвечать на сообщения
Вы не можете редактировать свои сообщения
Вы не можете удалять свои сообщения