Правила форума

  • В этом разделе создание новых тем Запрещено.
  • Для создания новых тем пользуйтесь Корневым разделом DVD и HD фильмы.
Начать новую темуОтветить на тему  [ 1 сообщение ] 
Торрент файл
Размер: 8.18 GB • Зарегистрирован: 3 года 4 месяца • Статус: Проверено
Скачан: 43 раза • Желающих скачать: 0 • Поблагодарили: 9 раз
 Раздают: 0  |  0 KB/s  ]   Качают: 0  |  0 KB/s  ] 
 Полного источника не было 1 год 11 месяцев 
Сообщения
 Добавлено: 2013-07-12 14:30
Модератор релиз-группы
Аватара пользователя
Стаж: 9 лет 1 месяц
Возраст: 97
Сообщений: 11660
Спасибок: 6533
Лайков: 269
12 раундов: Перезагрузка / 12 Rounds: Reloaded

Изображение


Год выпуска: 2013
Страна: сша
Жанр: Боевик
Продолжительность: 01:34:32
Перевод: Профессиональный (многоголосый закадровый)
Оригинальная звуковая дорожка
Субтитры: Английские

Режиссёр: Роэль Рейн
В ролях: Брайан Маркинсон, Рэнди Ортон, Синди Басби, Шон Роджерсон, Патрик Гилмор, Джесси Хатч, Колин Лоуренс, Челси Рейст, Фрейзер Айтчесон, Том Стивенс
Описание: В фильме "12 раундов 2: Перезагрузка / 12 Rounds: Reloaded" Вы увидите продолжение первой части фильма "12 раундов / 12 Rounds (2009)", в котором новоорлеанский полицейский Дэнни Фишер противостоял Майлсу Джексону - наиболее опасному преступнику в мире.

Изображение

Качество: BDRip 1080p
Формат: mkv
Видео кодек: MPEG-4
Аудио кодек: AC3 (Dolby Digital)
Видео: MPEG-4 AVC, 10.5 Мбит/с, 1920x1080
Аудио #1: Русский (AC3, 6 ch, 384 Кбит/с) [Профессиональный (многоголосый закадровый)]
Аудио #2: английский (DTS, 6 ch, 1510 Кбит/с) [Оригинальная звуковая дорожка]
Субтитры: Английские
Скриншоты
Изображение

Изображение

Изображение

Изображение
Свернуть
Mi
General
Unique ID : 189365134626739477260132767692054544435 (0x8E7665F84D9CE9979064F33F973F4033)
Complete name : D:\12.Rounds.2.2013.BDRip1080p.mkv
Format : Matroska
Format version : Version 4 / Version 2
File size : 8.18 GiB
Duration : 1h 34mn
Overall bit rate : 12.4 Mbps
Encoded date : UTC 2013-07-11 20:05:40
Writing application : mkvmerge v6.2.0 ('Promised Land') built on Apr 28 2013 12:22:01
Writing library : libebml v1.3.0 + libmatroska v1.4.0

Video
ID : 1
Format : AVC
Format/Info : Advanced Video Codec
Format profile : High@L4.1
Format settings, CABAC : Yes
Format settings, ReFrames : 4 frames
Codec ID : V_MPEG4/ISO/AVC
Duration : 1h 34mn
Bit rate : 10.5 Mbps
Width : 1 920 pixels
Height : 1 080 pixels
Display aspect ratio : 16:9
Frame rate mode : Constant
Frame rate : 23.976 fps
Color space : YUV
Chroma subsampling : 4:2:0
Bit depth : 8 bits
Scan type : Progressive
Bits/(Pixel*Frame) : 0.212
Stream size : 6.77 GiB (83%)
Writing library : x264 core 130 r2273 b3065e6
Encoding settings : cabac=1 / ref=4 / deblock=1:-3:-3 / analyse=0x3:0x113 / me=umh / subme=10 / psy=1 / psy_rd=1.05:0.10 / mixed_ref=1 / me_range=48 / chroma_me=1 / trellis=2 / 8x8dct=1 / cqm=0 / deadzone=21,11 / fast_pskip=0 / chroma_qp_offset=-2 / threads=12 / lookahead_threads=1 / sliced_threads=0 / nr=0 / decimate=1 / interlaced=0 / bluray_compat=0 / constrained_intra=0 / bframes=6 / b_pyramid=2 / b_adapt=2 / b_bias=0 / direct=3 / weightb=1 / open_gop=0 / weightp=2 / keyint=250 / keyint_min=23 / scenecut=40 / intra_refresh=0 / rc_lookahead=40 / rc=2pass / mbtree=0 / bitrate=10533 / ratetol=2.0 / qcomp=0.70 / qpmin=0 / qpmax=69 / qpstep=4 / cplxblur=20.0 / qblur=0.5 / vbv_maxrate=40000 / vbv_bufsize=30000 / nal_hrd=none / ip_ratio=1.40 / pb_ratio=1.30 / aq=2:1.00
Language : English
Default : No
Forced : No

Audio #1
ID : 2
Format : AC-3
Format/Info : Audio Coding 3
Mode extension : CM (complete main)
Format settings, Endianness : Big
Codec ID : A_AC3
Duration : 1h 34mn
Bit rate mode : Constant
Bit rate : 384 Kbps
Channel(s) : 6 channels
Channel positions : Front: L C R, Side: L R, LFE
Sampling rate : 48.0 KHz
Bit depth : 16 bits
Compression mode : Lossy
Stream size : 259 MiB (3%)
Language : Russian
Default : Yes
Forced : No

Audio #2
ID : 3
Format : DTS
Format/Info : Digital Theater Systems
Mode : 16
Format settings, Endianness : Big
Codec ID : A_DTS
Duration : 1h 34mn
Bit rate mode : Constant
Bit rate : 1 509 Kbps
Channel(s) : 6 channels
Channel positions : Front: L C R, Side: L R, LFE
Sampling rate : 48.0 KHz
Bit depth : 24 bits
Compression mode : Lossy
Stream size : 1 017 MiB (12%)
Title : dts 5.1 1536kbps
Language : English
Default : No
Forced : No

Text
ID : 4
Format : PGS
Codec ID : S_HDMV/PGS
Codec ID/Info : The same subtitle format used on BDs/HD-DVDs
Language : English
Default : Yes
Forced : No

Menu
00:00:00.000 : en:00:00:00.000
00:05:15.190 : en:00:05:15.190
00:08:35.515 : en:00:08:35.515
00:12:21.366 : en:00:12:21.366
00:16:13.556 : en:00:16:13.556
00:22:05.241 : en:00:22:05.241
00:25:05.212 : en:00:25:05.212
00:30:25.115 : en:00:30:25.115
00:33:36.598 : en:00:33:36.598
00:37:59.068 : en:00:37:59.068
00:41:54.053 : en:00:41:54.053
00:43:48.209 : en:00:43:48.209
00:49:29.633 : en:00:49:29.633
00:52:08.375 : en:00:52:08.375
00:55:21.860 : en:00:55:21.860
00:59:36.740 : en:00:59:36.740
01:03:36.187 : en:01:03:36.187
01:06:38.620 : en:01:06:38.620
01:10:14.961 : en:01:10:14.961
01:14:29.840 : en:01:14:29.840
01:16:46.268 : en:01:16:46.268
01:21:21.335 : en:01:21:21.335
01:25:55.317 : en:01:25:55.317
01:29:09.386 : en:01:29:09.386

Свернуть
Не в сети
Профиль  
Начать новую темуОтветить на тему  [ 1 сообщение ] 
Вы не можете начинать темы
Вы не можете отвечать на сообщения
Вы не можете редактировать свои сообщения
Вы не можете удалять свои сообщения