Правила форума

  • В этом разделе создание новых тем Запрещено.
  • Для создания новых тем пользуйтесь Корневым разделом DVD и HD фильмы.
Начать новую темуОтветить на тему  [ 1 сообщение ] 
Торрент файл
Размер: 5.77 GB • Зарегистрирован: 5 лет 7 месяцев • Статус: Проверено
Скачан: 88 раз • Желающих скачать: 0 • Поблагодарили: 22 раза
 Раздают: 0  |  0 KB/s  ]   Качают: 0  |  0 KB/s  ] 
 Полного источника не было 1 год 2 месяца 
Сообщения
 Добавлено: 2011-04-08 00:33
Модератор
Аватара пользователя
Стаж: 8 лет 1 месяц
Сообщений: 1991
Спасибок: 129863
Лайков: 20
127 часов / 127 Hours


«Важна каждая секунда»



Изображение
Год выпуска: 2010
Страна: Изображение США, Изображение Великобритания
Жанр: триллер, драма, приключения, биография
Продолжительность:
01:33:41


Перевод 1: Профессиональный (дублированный) [лицензия]
Перевод 2: Профессиональный (двухголосый закадровый) Кубик в кубе
Перевод 3: Любительский (одноголосый закадровый) Владислав Бобошко
Cубтитры: русские полные, русские полные SDH, английские
Оригинальная аудиодорожка: английский

Режиссер: Дэнни Бойл
Сценарий: Дэнни Бойл, Саймон Бофой, Арон Ральстон
Продюсер: Дэнни Бойл, Джон Смтисон, Кристиан Колсон, Бернард Беллью, Камерон МакКрекен
Оператор: Энрике Шедьяк, Энтони Дод Мэнтл
Композитор: А.Р. Рахман

В ролях:
Джеймс Франко (Aron Ralston), Кейт Мара (Kristi), Эмбер Тэмблин (Megan), Шон Ботт (Aron's Friend), Колман Стингер (Aron Age 5), Трит Уильямс (Aron's Dad), Джон Лоуренс (Brian), Кейт Бёртон (Aron's Mom), Бэйли Мишель Джонсон (Sonja Age 10), Ребекка С. Олсон (Monique Meijer), Паркер Хэдли (Aron Age 15), Клеманс Поэзи (Rana)
Дублёры: Алексей Чадов (Aron Ralston) (Aron Ralston), Татьяна Шитова (Kristi) (Kristi), Рамиля Искандер (Megan) (Megan), Лиза Мартиросова (Sonja Age 10) (Sonja Age 10)

Описание: Неудержимый скалолаз и любитель спрятанных в каньонах пещер в очередной раз в одиночестве едет в горы и оказывается в смертельной ловушке. 127 часов без еды, без питья и практически без надежды выжить. Тут-то и проявляется сила характера...


Изображение: 7.922 (15 986)
Изображение: 8.00 (56 810)

MPAA: Изображение - Лицам до 17 лет обязательно присутствие взрослого

Доп. Информация

Бюджет: $18 000 000
Сборы в США: $18 317 299
Сборы в России: $906 061
Сборы в мире: $50 843 216
Мировая премьера: 4 сентября 2010
Изображение Релиз на DVD: 31 марта 2011, «Двадцатый Век Фокс СНГ»
Изображение Релиз на Blu-ray: 7 июля 2011, «Двадцатый Век Фокс СНГ»

Свернуть


Качество: BDRip 720p(CHDBits)
R5

Формат: MKV

Видео: AVC,1280 x 694,6 146 Kbps,23.976 fps,0.289
Аудио 1: Russian: 48 kHz, AC3, 3/2 (L,C,R,l,r) + LFE ch, ~384.00 kbps avg
Аудио 2: Russian: 48 kHz, AC3, 3/2 (L,C,R,l,r) + LFE ch, ~384.00 kbps avg
Аудио 3: Russian: 48 kHz, AC3, 3/2 (L,C,R,l,r) + LFE ch, ~384.00 kbps avg
Аудио 4: English: 48 kHz, DTS, 3/2 (L,C,R,l,r) + LFE ch, ~1536.00 kbps avg
Изображение


Знаете ли Вы, что...
  • На главную роль в фильме претендовал Киллиан Мерфи.
  • Фильм снят по автобиографической книге молодого скалолаза-любителя Арона Ральстона, который в один из уикэндов 2003 года, не сказав никому не слова, отправился к любимому каньону. По роковой случайности он оступился и рухнул в расщелину.
  • Арона Ральстона мог сыграть Себастьян Стэн.
  • Кэти Фезерстон пробовалась на роль Кристи. Также в фильме могли сыграть Джена Мэлоун и Лейк Белл.
  • Арон Ральстон, действительно, вел видеодневник, пока находился в ущелье. Запись была показана только близким родственникам Ральстона. Перед съемками «127 часов» ее разрешено было посмотреть Дэнни Бойлу и Джеймсу Франко.
Свернуть
BDInfo

General
Unique ID : 177207867531827823143921209113387660096 (0x8550FE6CB1F11F8884D9D9C1178EF340)
Complete name : D:\Downloads\Видео\127.Hours.2010.BluRay.720p.DTS.x264-CHD.mkv
Format : Matroska
File size : 5.77 GiB
Duration : 1h 33mn
Overall bit rate : 8 810 Kbps
Movie name : -Talian-
Encoded date : UTC 2011-04-07 21:00:07
Writing application : mkvmerge v3.3.0 ('Language') сборка от May 14 2010 17:11:50
Writing library : libebml v0.8.0 + libmatroska v0.9.0


Video
ID : 1
Format : AVC
Format/Info : Advanced Video Codec
Format profile : High@L4.1
Format settings, CABAC : Yes
Format settings, ReFrames : 9 frames
Codec ID : V_MPEG4/ISO/AVC
Duration : 1h 33mn
Bit rate : 6 146 Kbps
Width : 1 280 pixels
Height : 694 pixels
Display aspect ratio : 16:9
Frame rate : 23.976 fps
Color space : YUV
Chroma subsampling : 4:2:0
Bit depth : 8 bits
Scan type : Progressive
Bits/(Pixel*Frame) : 0.289
Stream size : 3.91 GiB (68%)
Title : 127.Hours.2010.BluRay.720p.DTS.x264-CHD
Writing library : x264 core 114 r1900 60ef1f8
Encoding settings : cabac=1 / ref=9 / deblock=1:-3:-3 / analyse=0x3:0x113 / me=umh / subme=9 / psy=1 / psy_rd=1.10:0.15 / mixed_ref=1 / me_range=32 / chroma_me=1 / trellis=2 / 8x8dct=1 / cqm=2 / deadzone=21,11 / fast_pskip=0 / chroma_qp_offset=-2 / threads=6 / sliced_threads=0 / nr=0 / decimate=1 / interlaced=0 / constrained_intra=0 / bframes=5 / b_pyramid=2 / b_adapt=2 / b_bias=0 / direct=3 / weightb=1 / open_gop=0 / weightp=2 / keyint=250 / keyint_min=23 / scenecut=40 / intra_refresh=0 / rc_lookahead=60 / rc=2pass / mbtree=1 / bitrate=6146 / ratetol=1.0 / qcomp=0.60 / qpmin=1 / qpmax=63 / qpstep=4 / cplxblur=20.0 / qblur=0.5 / vbv_maxrate=40000 / vbv_bufsize=30000 / nal_hrd=none / ip_ratio=1.40 / aq=1:0.80
Language : English


Audio #1
ID : 2
Format : AC-3
Format/Info : Audio Coding 3
Mode extension : CM (complete main)
Codec ID : A_AC3
Duration : 1h 33mn
Bit rate mode : Constant
Bit rate : 384 Kbps
Channel(s) : 6 channels
Channel positions : Front: L C R, Side: L R, LFE
Sampling rate : 48.0 KHz
Bit depth : 16 bits
Compression mode : Lossy
Stream size : 257 MiB (4%)
Title : Дубляж
Language : Russian


Audio #2
ID : 3
Format : AC-3
Format/Info : Audio Coding 3
Mode extension : CM (complete main)
Codec ID : A_AC3
Duration : 1h 33mn
Bit rate mode : Constant
Bit rate : 384 Kbps
Channel(s) : 6 channels
Channel positions : Front: L C R, Side: L R, LFE
Sampling rate : 48.0 KHz
Bit depth : 16 bits
Compression mode : Lossy
Stream size : 257 MiB (4%)
Title : DVO-Кубик в кубе
Language : Russian


Audio #3
ID : 4
Format : AC-3
Format/Info : Audio Coding 3
Mode extension : CM (complete main)
Codec ID : A_AC3
Duration : 1h 33mn
Bit rate mode : Constant
Bit rate : 384 Kbps
Channel(s) : 6 channels
Channel positions : Front: L C R, Side: L R, LFE
Sampling rate : 48.0 KHz
Bit depth : 16 bits
Compression mode : Lossy
Stream size : 257 MiB (4%)
Title : VO-Бошко
Language : Russian


Audio #4
ID : 5
Format : DTS
Format/Info : Digital Theater Systems
Codec ID : A_DTS
Duration : 1h 33mn
Bit rate mode : Constant
Bit rate : 1 510 Kbps
Channel(s) : 6 channels
Channel positions : Front: L C R, Side: L R, LFE
Sampling rate : 48.0 KHz
Bit depth : 24 bits
Compression mode : Lossy
Stream size : 1 012 MiB (17%)
Title : Оригинал
Language : English


Text #1
ID : 6
Format : UTF-8
Codec ID : S_TEXT/UTF8
Codec ID/Info : UTF-8 Plain Text
Title : Sub-full SDH
Language : Russian


Text #2
ID : 7
Format : UTF-8
Codec ID : S_TEXT/UTF8
Codec ID/Info : UTF-8 Plain Text
Title : Sub-full
Language : Russian


Text #3
ID : 8
Format : UTF-8
Codec ID : S_TEXT/UTF8
Codec ID/Info : UTF-8 Plain Text
Title : Sub
Language : English
Свернуть
Скриншоты

Изображение
Изображение
Изображение
Изображение
Свернуть

_________________
Себе ты можешь не качать, но раздавать другим обязан!
Не в сети
Профиль  
Начать новую темуОтветить на тему  [ 1 сообщение ] 
Вы не можете начинать темы
Вы не можете отвечать на сообщения
Вы не можете редактировать свои сообщения
Вы не можете удалять свои сообщения