Правила форума

  • В этом разделе создание новых тем Запрещено.
  • Для создания новых тем пользуйтесь Корневым разделом DVD и HD фильмы.
Начать новую темуОтветить на тему  [ 1 сообщение ] 
Торрент файл
Размер: 9.31 GB • Зарегистрирован: 19 дней • Статус: T Временный релиз
Скачан: 113 раз • Желающих скачать: 0 • Поблагодарили: 19 раз
 Раздают: 0  |  0 KB/s  ]   Качают: 0  |  0 KB/s  ] 
 Полного источника не было 1 час 1 минута 
Сообщения
 Добавлено: 2015-10-01 07:25
Top-releaser
Аватара пользователя
Стаж: 7 лет 8 месяцев
Сообщений: 3823
Спасибок: 263498
Лайков: 1103
128 ударов сердца в минуту

We Are Your Friends


Изображение


Год выпуска: 2015
Страна: Великобритания, Франция, США
Жанр: Драма, мелодрама, музыка
Продолжительность: 01:36:03
Перевод: Профессиональный (полное дублирование)
Режиссер: Макс Джозеф
В ролях: Зак Эфрон, Уэс Бентли, Эмили Ратаковски, Джонни Уэстон, Шайло Фернандес, Алекс Шеффер, Джон Бернтал, Алисия Коппола, Уайли М. Пикетт, Джон Абрахамс
Описание: Лос-Анджелес, Калифорния — это мир бесконечных возможностей днем и нереальных голливудских вечеринок ночью. Оба этих мира стремится покорить молодой DJ по имени Коул, неустанно работающий над своим пробивным треком, который должен взорвать весь мир. Его замечает и берет под крыло опытный продюсер Джеймс, но все становится крайне запутанным, когда Коул влюбляется в молодую подружку Джеймса. Вскоре перед Коулом встает непростой выбор между любовью, верностью, старыми друзьями и будущим, о котором он так мечтает.
Изображение
Качество: BDRip 1080p
Формат: MKV
Видео кодек: H.264
Аудио кодек: AC3
Видео: 1920x1040 24fps 9127kbps
Аудио:
Аудио Rus: 48kHz 6ch 384Kbps
Аудио Eng: 48kHz 6ch 640Kbps
"MediaInfo"
Format : Matroska
Format version : Version 4 / Version 2
File size : 9.31 GiB
Duration : 1h 36mn
Overall bit rate : 13.9 Mbps
Movie name : 128.ударов.сердца.в.минуту.We.Are.Your.Friends.2015.BDRip.1080p.
Encoded date : UTC 2015-12-11 22:59:27
Writing application : mkvmerge v8.3.0 ('Over the Horizon') 64bit
Writing library : libebml v1.3.1 + libmatroska v1.4.2

Video
ID : 1
Format : AVC
Format/Info : Advanced Video Codec
Format profile : High@L4.1
Format settings, CABAC : Yes
Format settings, ReFrames : 4 frames
Codec ID : V_MPEG4/ISO/AVC
Duration : 1h 36mn
Bit rate : 9 127 Kbps
Width : 1 920 pixels
Height : 1 040 pixels
Display aspect ratio : 1.85:1
Frame rate mode : Constant
Frame rate : 24.000 fps
Color space : YUV
Chroma subsampling : 4:2:0
Bit depth : 8 bits
Scan type : Progressive
Bits/(Pixel*Frame) : 0.190
Stream size : 6.12 GiB (66%)
Title : 128.ударов.сердца.в.минуту.We.Are.Your.Friends.2015.BDRip.1080p.
Writing library : x264 core 148 r2638 7599210
Encoding settings : cabac=1 / ref=4 / deblock=1:1:1 / analyse=0x3:0x133 / me=umh / subme=8 / psy=1 / psy_rd=1.00:0.00 / mixed_ref=1 / me_range=16 / chroma_me=1 / trellis=1 / 8x8dct=1 / cqm=0 / deadzone=21,11 / fast_pskip=0 / chroma_qp_offset=-2 / threads=18 / lookahead_threads=3 / sliced_threads=0 / nr=0 / decimate=1 / interlaced=0 / bluray_compat=0 / constrained_intra=0 / bframes=3 / b_pyramid=2 / b_adapt=2 / b_bias=0 / direct=3 / weightb=1 / open_gop=0 / weightp=2 / keyint=240 / keyint_min=24 / scenecut=40 / intra_refresh=0 / rc_lookahead=50 / rc=2pass / mbtree=1 / bitrate=9127 / ratetol=1.0 / qcomp=0.60 / qpmin=0 / qpmax=69 / qpstep=4 / cplxblur=20.0 / qblur=0.5 / ip_ratio=1.40 / aq=1:1.00
Language : English
Default : Yes
Forced : No

Audio #1
ID : 2
Format : AC-3
Format/Info : Audio Coding 3
Mode extension : CM (complete main)
Format settings, Endianness : Big
Codec ID : A_AC3
Duration : 1h 35mn
Bit rate mode : Constant
Bit rate : 384 Kbps
Channel(s) : 6 channels
Channel positions : Front: L C R, Side: L R, LFE
Sampling rate : 48.0 KHz
Frame rate : 31.250 fps (1536 spf)
Compression mode : Lossy
Stream size : 263 MiB (3%)
Language : Russian
Default : Yes
Forced : No

Audio #2
ID : 3
Format : AC-3
Format/Info : Audio Coding 3
Mode extension : CM (complete main)
Format settings, Endianness : Big
Codec ID : A_AC3
Duration : 1h 36mn
Bit rate mode : Constant
Bit rate : 640 Kbps
Channel(s) : 6 channels
Channel positions : Front: L C R, Side: L R, LFE
Sampling rate : 48.0 KHz
Frame rate : 31.250 fps (1536 spf)
Compression mode : Lossy
Stream size : 440 MiB (5%)
Language : English
Default : No
Forced : No

Audio #3
ID : 4
Format : DTS
Format/Info : Digital Theater Systems
Format profile : MA / Express / Core
Mode : 16
Format settings, Endianness : Big
Codec ID : A_DTS
Duration : 1h 36mn
Bit rate mode : Variable / Constant / Constant
Bit rate : 3 728 Kbps / 3 048 Kbps / 1 509 Kbps
Channel(s) : 8 channels / 8 channels / 6 channels
Channel positions : Front: L C R, Side: L R, Back: L R, LFE / Front: L C R, Side: L R, Back: L R, LFE / Front: L C R, Side: L R, LFE
Sampling rate : 48.0 KHz
Frame rate : 93.750 fps (512 spf)
Bit depth : 24 bits
Compression mode : Lossless / Lossy / Lossy
Stream size : 2.50 GiB (27%)
Title : English DTS
Language : English
Default : No
Forced : No

Menu
00:00:00.000 : en:00:00:00.000
00:10:29.250 : en:00:10:29.250
00:20:29.375 : en:00:20:29.375
00:32:28.750 : en:00:32:28.750
00:42:20.500 : en:00:42:20.500
00:53:42.667 : en:00:53:42.667
01:04:27.250 : en:01:04:27.250
01:14:39.708 : en:01:14:39.708
01:29:55.750 : en:01:29:55.750
Свернуть

"Скриншоты"
Изображение
Изображение
Изображение
Изображение
Свернуть
Не в сети
Профиль  
Начать новую темуОтветить на тему  [ 1 сообщение ] 
Вы не можете начинать темы
Вы не можете отвечать на сообщения
Вы не можете редактировать свои сообщения
Вы не можете удалять свои сообщения