Правила форума

  • В этом разделе создание новых тем Запрещено.
  • Для создания новых тем пользуйтесь Корневым разделом DVD и HD фильмы.
Начать новую темуОтветить на тему  [ Сообщений: 9 ] 
Торрент файл
Размер: 12.72 GB • Зарегистрирован: 5 лет 2 месяца • Статус: Проверено
Скачан: 185 раз • Желающих скачать: 0 • Поблагодарили: 27 раз
 Раздают: 0  |  0 KB/s  ]   Качают: 0  |  0 KB/s  ] 
 Полного источника не было 2 года 2 месяца 
Сообщения
 Добавлено: 2011-10-02 08:14
Top-releaser
Аватара пользователя
Стаж: 8 лет 7 месяцев
Сообщений: 1286
Спасибок: 3420
Лайков: 7
13 убийц / 13 assassins / Jusan-nin no shikaku

Изображение
Год выпуска: 2010
Страна: Япония, Великобритания
Жанр: боевик, драма, приключения
Продолжительность: 02:21:51
Перевод: Профессиональный (многоголосый, закадровый)[BBC Saint-Petersburg]

Режиссер: Такаси Миике
Сценарий: Канео Икегами, Дайскэ Тэнган
Продюсер: Минами Ичикава, Tôichirô Shiraishi, Michihiko Yanagisawa, Takashi Hirajô, Тошиаки Наказава
Оператор: Нобуясу Кита
Композитор: Кодзи Эндо

В ролях: Кодзи Якусё, Такаюки Ямада, Юсуке Исейа, Горо Инагаки, Masachika Ichimura, Микидзиро Хира, Хироки Мацуката, Икки Савамура, Арата Фурута, Цуеши Ихара, Масатака Кубота, Соускэ Такаока
Описание: Действие ленты помещено в эпоху сегунов, а расскажет картина о тайной миссии неких 13 убийц уничтожить злого правителя, выполнить которую оказывается не так-то просто, поскольку численность телохранителей этого злодея в десять раз превосходит количество людей, покушающихся на его жизнь.

Раздача: Изображение

Изображение


Бюджет: $6 000 000
Сборы в мире: $17 555 141
Сборы в США: $802 778
Мировая премьера: 9 сентября 2010
Изображение Релиз на DVD: Ноябрь 2011, «Новый Диск»
MPAA: Изображение
Качество: BDRip
Формат: Matroska
Видео: AVC; 1920x800 (2.40:1); 10626 Kbps; 23,976 fps; 0,289 bpp
Аудио №1: Russian; AC3; 448 Kbps; CBR; 6 ch
Аудио №2: Japanese; DTS; 1509 Kbps; CBR; 6 ch; 24 bit

MediaInfo
Общее
Уникальный идентификатор : 206305959379008178387832139479541384770 (0x9B35151DE43407ACB9DE5785B9108642)
Полное имя : E:\Видео\13. Assassins.2010.P.BDRip.1080p.[ELEKTRI4KA].mkv
Формат : Matroska
Версия формата : Version 2
Размер файла : 12,7 Гбайт
Продолжительность : 2 ч. 21 м.
Общий поток : 12,8 Мбит/сек
Название фильма : -=ELEKTRI4KA=-
Дата кодирования : UTC 2011-10-01 13:40:39
Программа кодирования : mkvmerge v5.0.0 ('Die Wahre Liebe') built on Sep 25 2011 20:33:49
Библиотека кодирования : libebml v1.2.2 + libmatroska v1.3.0

Видео
Идентификатор : 1
Формат : AVC
Формат/Информация : Advanced Video Codec
Профиль формата : High@L4.1
Параметр CABAC формата : Да
Параметр ReFrames формата : 4 кадра
Идентификатор кодека : V_MPEG4/ISO/AVC
Продолжительность : 2 ч. 21 м.
Битрейт : 10,9 Мбит/сек
Ширина : 1920 пикс.
Высота : 800 пикс.
Соотношение сторон : 2,40:1
Режим частоты кадров : Постоянный
Частота кадров : 23,976 кадр/сек
Цветовое пространство : YUV
Подвыборка цветности : 4:2:0
Битовая глубина : 8 бит
Тип развёртки : Прогрессивная
Бит/(Пиксели*Кадры) : 0.296
Размер потока : 10,5 Гбайт (83%)
Библиотека кодирования : x264 core 115 r1947+532 361db68
Настройки программы : cabac=1 / ref=4 / deblock=1:-3:-3 / analyse=0x3:0x113 / me=umh / subme=9 / psy=1 / fade_compensate=0.00 / psy_rd=1.05:0.10 / mixed_ref=1 / me_range=32 / chroma_me=1 / trellis=2 / 8x8dct=1 / cqm=2 / deadzone=21,11 / fast_pskip=0 / chroma_qp_offset=-2 / threads=12 / sliced_threads=0 / nr=0 / decimate=1 / interlaced=0 / bluray_compat=0 / constrained_intra=0 / fgo=0 / bframes=6 / b_pyramid=2 / b_adapt=2 / b_bias=0 / direct=3 / weightb=1 / open_gop=0 / weightp=2 / keyint=250 / keyint_min=23 / scenecut=40 / intra_refresh=0 / rc_lookahead=60 / rc=2pass / mbtree=1 / bitrate=10886 / ratetol=2.0 / qcomp=0.70 / qpmin=1 / qpmax=63 / qpstep=4 / cplxblur=20.0 / qblur=0.5 / vbv_maxrate=40000 / vbv_bufsize=30000 / nal_hrd=none / ip_ratio=1.40 / aq=1:0.90
Язык : Japanese

Аудио #1
Идентификатор : 2
Формат : AC-3
Формат/Информация : Audio Coding 3
Расширение режима : CM (complete main)
Идентификатор кодека : A_AC3
Продолжительность : 2 ч. 21 м.
Вид битрейта : Постоянный
Битрейт : 448 Кбит/сек
Каналы : 6 каналов
Расположение каналов : Front: L C R, Side: L R, LFE
Частота : 48,0 КГц
Битовая глубина : 16 бит
Метод сжатия : С потерями
Размер потока : 455 Мбайт (3%)
Заголовок : Russian AC3 448 kbps
Язык : Russian

Аудио #2
Идентификатор : 3
Формат : DTS
Формат/Информация : Digital Theater Systems
Идентификатор кодека : A_DTS
Продолжительность : 2 ч. 21 м.
Вид битрейта : Постоянный
Битрейт : 1510 Кбит/сек
Каналы : 6 каналов
Расположение каналов : Front: L C R, Side: L R, LFE
Частота : 48,0 КГц
Битовая глубина : 24 бит
Метод сжатия : С потерями
Размер потока : 1,50 Гбайт (12%)
Заголовок : Japanese DTS 5.1 1510 Kbps
Язык : Japanese

Текст
Идентификатор : 4
Формат : UTF-8
Идентификатор кодека : S_TEXT/UTF8
Идентификатор кодека/Информация : UTF-8 Plain Text
Язык : English

Свернуть

Скриншоты
Изображение
Изображение
Изображение
Изображение
Изображение
Изображение
Изображение
Изображение
Изображение
Изображение
Изображение
Изображение
Изображение
Изображение
Свернуть

Изображение
Не в сети
Профиль  
 Добавлено: 2011-10-03 14:12 (спустя 1 день 5 часов)
Аватара пользователя
Стаж: 7 лет 5 месяцев
Сообщений: 35
Отличный фильм !!!
Очень доволен после просмотра, автору - спасибо!
Не в сети
Профиль  
 Добавлено: 2011-10-03 19:09 (спустя 4 часа)
Top-releaser
Аватара пользователя
Стаж: 8 лет 7 месяцев
Сообщений: 1286
Спасибок: 3420
Лайков: 7

rjhgu.ljh:

Отличный фильм !!!
Очень доволен после просмотра, автору - спасибо!
Согласен. Фильм серьёзный, но есть и забавные моменты :
Cкрытый текст
Изображение
Свернуть
:-D
Не в сети
Профиль  
 Добавлено: 2011-10-03 20:32 (спустя 1 час 23 минуты)
Аватара пользователя
Стаж: 7 лет 5 месяцев
Сообщений: 35
Да уж угарный момент. Люди посмотревшие фильм сразу вспомнят этот отрывок и наверняка еще раз рассмеются !
Не в сети
Профиль  
 Добавлено: 2011-10-20 20:52 (спустя 17 дней)
Стаж: 8 лет
Сообщений: 27
Спасибок: 26
Лайков: 1
Обычный фильм длится 1,30ч. Здесь же только через полтора часа начинается только какое-то движение. Скучней и хуже фильма не видел.
Не в сети
Профиль  
 Добавлено: 2011-10-20 21:28 (спустя 36 минут)
Top-releaser
Аватара пользователя
Стаж: 8 лет 7 месяцев
Сообщений: 1286
Спасибок: 3420
Лайков: 7

culicy:

Обычный фильм длится 1,30ч. Здесь же только через полтора часа начинается только какое-то движение. Скучней и хуже фильма не видел.
Выходит что это необычный фильм :ti_pa:
Не в сети
Профиль  
 Добавлено: 2011-10-23 15:06 (спустя 2 дня 17 часов)
Аватара пользователя
Стаж: 8 лет
Возраст: 32
Сообщений: 202
Спасибок: 538
Спасибо! Надо заценить, люблю я :co_ol: фильмы Великобритании :co_ol:
Не в сети
Профиль  
 Добавлено: 2011-10-24 12:16 (спустя 21 час)
Аватара пользователя
Стаж: 8 лет 11 месяцев
Сообщений: 515
Спасибок: 39
Лайков: 49
Бой на мечах то есть? А то по скриншотам тупо одни японские рожи, такое ощущение что все молча смотрят друг на друга весь фильм.
Не в сети
Профиль  
 Добавлено: 2013-07-01 17:50 (спустя 1 год 8 месяцев)
Аватара пользователя
Стаж: 7 лет 6 месяцев
Возраст: 51
Сообщений: 1782
Лайков: 1396
Фильм производит двойственное впечатление.

С одной стороны - вполне неплохо выстроенные исторические декорации, три известных и хорошо играющих японских актера и красиво окровавленные самурайские катаны. Еще понравилось, как строили из дерева городок для обороны.

Зато не понравилось, как городок обороняли. сплошная лажа, натянутость, и пафос, переходящий всякие разумные границы. Сто тысяч японских статистов -двойников (в том числе и большая часть из 13 самураев). К тому же - первая треть фильма, в которой ничего не происходит, и последняя треть фильма, сплошь состоящая из мясорубки, настолько невнятной, что непонятно - чувак рубит то ли недруга, то ли друга, то ли самого даже самого себя. Конец четкий, внятный. Но из всего действа этого двухчасового фильма НУ ОЧЕНЬ НУЖНО убрать минут сорок пять. А то и час. А то и полтора часа. Получится хорошая короткометражка вместо невнятной резины. Иногда короткий метр лучше бесконечной тягомотины.

Немного повеселил фрик из японских лесов, длинноносый, толкающий речи по поводу неполноценности самураев, и в добавок бессмертный. Речи его понравились, но повеселил немного, ей-богу. Если рассуждать хоть чуток объективно, этот фильм - поделка, а не самостоятельное произведение искусства. Переделка старого фильма, выполненная довольно лениво и нелепо.

Если вы любите японские фильмы настолько, насколько же и я - смотрите и увидите. И тогда вы оцените по-настоящему хорошие фильмы. А этот - разок досмотрите, зевая и постоянно нажимая кнопку перемотки. И с облегчением выкинете в корзину.

Сугубое ИМХО.

Сугубое ИМХО.
[/color]


Тема поднималась пользователем Shamman 2013-07-01 17:50.
Не в сети
Профиль  
Начать новую темуОтветить на тему  [ Сообщений: 9 ] 
Вы не можете начинать темы
Вы не можете отвечать на сообщения
Вы не можете редактировать свои сообщения
Вы не можете удалять свои сообщения