Правила форума

  • В этом разделе создание новых тем Запрещено.
  • Для создания новых тем пользуйтесь Корневым разделом DVD и HD фильмы.
Начать новую темуОтветить на тему  [ Сообщений: 2 ] 
Торрент файл
Размер: 4.31 GB • Зарегистрирован: 5 лет 4 месяца • Статус: Проверено
Скачан: 273 раза • Желающих скачать: 0 • Поблагодарили: 52 раза
 Раздают: 0  |  0 KB/s  ]   Качают: 0  |  0 KB/s  ] 
 Полного источника не было 10 месяцев 
Сообщения
 Добавлено: 2011-07-26 19:28
Top-releaser
Аватара пользователя
Стаж: 8 лет 9 месяцев
Сообщений: 479
Спасибок: 20189
Лайков: 16
Изображение

Режиссёрская версия

1408 [Director`s cut]

Изображение


Год выпуска: 2007
Страна: Изображение США; Dimension Films, Di Bonaventura Pictures
Слоган: «Отель 'Дельфин' приглашает Вас остановиться в любом из наших роскошных номеров. Кроме одного…»
Жанр: Ужасы, триллер
Продолжительность: 01:52:26
Перевод: Профессиональный (полное дублирование), в доп. сцены вставлена многоголоска


Режиссёр: Микаэль Хафстрем / Mikael Hafstrom

В ролях: Джон Кьюсак, Сэмюэл Л. Джексон, Пол Бирчард, Марго Лейкестер, Уолтер Льюис, Эрик Мейерс, Дэвид Николсон, Холли Хэйес, Александра Силбер, Йохан Урб

Описание: Фильм снят по произведению Стивена Кинга.

Известный писатель Майк Энслин, сочиняющий свои романы в жанре «ужасы», пишет очередную книгу о необычных явлениях и полтергейсте в отелях. Не верящий в существование загробной жизни, Энслин решает поселиться в печально известном номере 1408 гостиницы «Дельфин», который пустует многие годы: по слухам, там обитают привидения. Невзирая на предупреждения старшего менеджера мистера Джеральда Олина о грозящей опасности, упрямец настаивает на своем, даже не предполагая, каким кошмаром обернется предстоящая ночь…


Качество: BDRip 720p
Формат: MKV

Видео: 3988 Кбит/сек, 1280 x 528 (2.424) at 23.976 fps

Аудио: DTS at 1510 Кбит/сек, 6 канала(ов), 48,0 КГц

Изображение

Изображение
MediaInfo

Общее
Уникальный идентификатор : 200182953689790588154195964117071473014 (0x9699D5A0EBB359AC8D4B72C10A6CA976)
Полное имя : C:\Users\Домашний\Desktop\1408.BDRip 720p.[nntt].mkv
Формат : Matroska
Размер файла : 4,31 Гбайт
Продолжительность : 1 ч. 52 м.
Общий поток : 5490 Кбит/сек
Дата кодирования : UTC 2011-07-25 13:46:11
Программа кодирования : mkvmerge v4.3.0 ('Escape from the Island') сборка от Sep 5 2010 10:30:51
Библиотека кодирования : libebml v1.0.0 + libmatroska v1.0.0

Видео
Идентификатор : 2
Формат : AVC
Формат/Информация : Advanced Video Codec
Профиль формата : High@L4.1
Параметр CABAC формата : Да
Параметр ReFrames формата : 9 кадры
Режим смешивания : Header stripping
Идентификатор кодека : V_MPEG4/ISO/AVC
Продолжительность : 1 ч. 52 м.
Битрейт : 3988 Кбит/сек
Ширина : 1280 пикс.
Высота : 528 пикс.
Соотношение сторон : 2,40:1
Частота кадров : 23,976 кадр/сек
Цветовое пространство : YUV
Подвыборка цветности : 4:2:0
Битовая глубина : 8 бит
Тип развёртки : Прогрессивная
Бит/(Пиксели*Кадры) : 0.246
Размер потока : 3,04 Гбайт (71%)
Библиотека кодирования : x264 core 115 r1937 aa21558
Настройки программы : cabac=1 / ref=9 / deblock=1:-2:2 / analyse=0x3:0x113 / me=umh / subme=10 / psy=1 / psy_rd=1.00:1.00 / mixed_ref=1 / me_range=32 / chroma_me=1 / trellis=2 / 8x8dct=1 / cqm=0 / deadzone=21,11 / fast_pskip=1 / chroma_qp_offset=-6 / threads=3 / sliced_threads=0 / nr=0 / decimate=1 / interlaced=0 / bluray_compat=0 / constrained_intra=0 / bframes=9 / b_pyramid=2 / b_adapt=2 / b_bias=0 / direct=1 / weightb=1 / open_gop=0 / weightp=2 / keyint=250 / keyint_min=23 / scenecut=40 / intra_refresh=0 / rc_lookahead=60 / rc=2pass / mbtree=1 / bitrate=3988 / ratetol=1.0 / qcomp=0.60 / qpmin=0 / qpmax=69 / qpstep=4 / cplxblur=20.0 / qblur=0.5 / ip_ratio=1.40 / aq=1:1.00
Язык : English

Аудио
Идентификатор : 1
Формат : DTS
Формат/Информация : Digital Theater Systems
Режим смешивания : Header stripping
Идентификатор кодека : A_DTS
Продолжительность : 1 ч. 52 м.
Вид битрейта : Постоянный
Битрейт : 1510 Кбит/сек
Канал(ы) : 6 канала(ов)
Расположение каналов : Front: L C R, Side: L R, LFE
Частота : 48,0 КГц
Битовая глубина : 24 бит
Метод сжатия : С потерями
Задержка видео : 11 мс.
Размер потока : 1,19 Гбайт (28%)

Свернуть
Знаете ли Вы что....

Изображение
Изображение

Начало съемок – 13 июля 2006.

В своем рассказе Стивен Кинг вдохновлялся историей настоящего парапсихолога Кристофера Чэйкона, который описал свое исследование номера, одержимого духами, в отеле «Дель Коронадо» в Коронадо, штат Калифорния.

Рассказ Кинга фактически никогда не был опубликован в печатном виде. Сюжет он использовал для своей книги «О писательском мастерстве», однако история ему нравилась, поэтому он включил ее в цикл рассказов для аудио-сборника.

Жену Майк Лили должна была сыграть Кэйт Уолш. Однако актриса была связана контрактом с сериалом «Анатомия Грэйс» и на момент съемок не смогла покинуть шоу. Ее заменила Мэри МакКормак.

Одну из жертв номера 1408 зовут Грэйди. Грэйди также имя одной из героинь «Сияния», другой истории Кинга об ужасном отеле.

В фильме немалое количество указаний на несчастливое число 13. Так, номер 1408 при пересчете всех цифр дает 13; сам он находится на 13 этаже (при том, что в отеле как бы нет 13-го этажа, и после 12-го сразу идет 14-й); на ключе к номеру стоит число 6214, что тоже дает 13; адрес отеля – Ленсингтон, 2245 (13!); и, наконец, первая жертва погибла в отеле в 1912 году: вновь при пересчете – 13.

Одна из ранних книг Майка называется «Долгий путь домой». Управляющий отелем Джералд Олин путает название и произносит его как «Долгая прогулка»; так называется один из романов Кинга.

Свернуть

Скриншоты
Изображение
Изображение
Изображение
Изображение
Изображение
Изображение
Изображение
Свернуть

Раздача:

Изображение
_________________
Изображение
Изображение
Не в сети
Профиль  
 Добавлено: 2012-02-24 00:06 (спустя 6 месяцев)
Аватара пользователя
Стаж: 6 лет 10 месяцев
Сообщений: 60
Лайков: 1
Спасибо за релиз!!! Фильм супер!!! Пиндосы иногда могут снять шедевр, если постараются... :-ok-: :co_ol:
Не в сети
Профиль  
Начать новую темуОтветить на тему  [ Сообщений: 2 ] 
Вы не можете начинать темы
Вы не можете отвечать на сообщения
Вы не можете редактировать свои сообщения
Вы не можете удалять свои сообщения