Правила форума

  • В этом разделе создание новых тем Запрещено.
  • Для создания новых тем пользуйтесь Корневым разделом DVD и HD фильмы.
Начать новую темуОтветить на тему  [ Сообщений: 3 ] 
Торрент файл
Размер: 10.9 GB • Зарегистрирован: 4 года 4 месяца • Статус: T Временный релиз
Скачан: 60 раз • Желающих скачать: 0 • Поблагодарили: 9 раз
 Раздают: 0  |  0 KB/s  ]   Качают: 0  |  0 KB/s  ] 
 Полного источника не было 3 года 2 месяца 
Сообщения
 Добавлено: 2012-07-31 17:25
Top-releaser
Аватара пользователя
Стаж: 8 лет
Возраст: 31
Сообщений: 478
Спасибок: 4018
Лайков: 1
2 Зайца / 2 Coelhos

Изображение


Год выпуска: 2012
Страна: Бразилия (Black Maria, Black Maria Filme Video Digital)
Жанр: боевик
Продолжительность: 01:41:25
Перевод: Любительский (многоголосый закадровый) + Оригинальная звуковая дорожка
Субтитры: Английские

Режиссёр: Афонсо Поярт / Afonso Poyartt
Сценарист: Izaías Almada, Afonso Poyart
В ролях: Фернанду Алвис Пинту, Каку Сиоклер, Марат Дескартеш, Djair Guilherme, Роберто Марчезе, Aldine Muller, Алессандра Негрини, Робсон Нюнс
Описание: Что если, в стране произвол? Что если, он убил людей и остался безнаказанным? Что если он чертовски умен и решает поиграть в супергероя и параллельно сорвать куш? Что если все спланировано до мельчайших деталей? Но...
В этом бразильском боевике есть все, чтобы заинтересовать зрителей, увлечь и не отпускать их до самого конца. Убийства, взрывы, красивые женщины, сильные мужчины, чувственная эротика, ошеломляющие спецэффекты, … и, конечно же, Любовь, способная преодолеть все преграды.
Внимание! Присутствует ненормативная лексика!!!

Изображение 6.514 (307)
Изображение 7.4 (1,207)

Качество: BDRip 1080p
Формат: MKV
Видео кодек: MPEG-4 AVC
Аудио кодек: DTS
Видео: MPEG-4 AVC / 12,4 Mbps / 1920x1080 / 23,976 fps / 16:9 / High Profile 4.1
Аудио #1: DTS / 5.1 / 48 kHz / 1510 kbps / 16 bits [Любительский (многоголосый закадровый)]
Аудио #2: DTS / 5.1 / 48 kHz / 1510 kbps / 16 bits [Оригинальная звуковая дорожка]
Субтитры: Английские
Тех.данные
General
Unique ID : 191554032501411735337370101176443498024 (0x901BF6F7A51054D08683B1382BE26E28)
Complete name : D:\фильмы\2.Zajca.2012.x264.BDRip.(1080p).mkv
Format : Matroska
Format version : Version 2
File size : 10.9 GiB
Duration : 1h 41mn
Overall bit rate : 15.4 Mbps
Encoded date : UTC 2012-07-08 16:23:41
Writing application : mkvmerge v5.6.0 ('Kenya Kane') built on May 27 2012 16:44:04
Writing library : libebml v1.2.3 + libmatroska v1.3.0
Video #1
ID : 1
Format : AVC
Format/Info : Advanced Video Codec
Format profile : High@L4.1
Format settings, CABAC : Yes
Format settings, ReFrames : 4 frames
Codec ID : V_MPEG4/ISO/AVC
Duration : 1h 41mn
Bit rate : 12.4 Mbps
Width : 1 920 pixels
Height : 1 080 pixels
Display aspect ratio : 16:9
Frame rate : 23.976 fps
Color space : YUV
Chroma subsampling : 4:2:0
Bit depth : 8 bits
Scan type : Progressive
Bits/(Pixel*Frame) : 0.249
Stream size : 8.55 GiB (78%)
Title : 2.Coelhos.2012.1080p.BluRay.x264.DTS-HDChina
Writing library : x264 core 122 r2184 5c85e0a
Encoding settings : cabac=1 / ref=4 / deblock=1:-3:-3 / analyse=0x3:0x133 / me=umh / subme=10 / psy=1 / psy_rd=1.00:0.00 / mixed_ref=1 / me_range=48 / chroma_me=1 / trellis=2 / 8x8dct=1 / cqm=0 / deadzone=21,11 / fast_pskip=1 / chroma_qp_offset=-2 / threads=6 / sliced_threads=0 / nr=0 / decimate=0 / interlaced=0 / bluray_compat=0 / constrained_intra=0 / bframes=7 / b_pyramid=2 / b_adapt=2 / b_bias=0 / direct=3 / weightb=1 / open_gop=0 / weightp=2 / keyint=250 / keyint_min=23 / scenecut=40 / intra_refresh=0 / rc_lookahead=60 / rc=2pass / mbtree=0 / bitrate=12382 / ratetol=1.0 / qcomp=0.60 / qpmin=0 / qpmax=69 / qpstep=4 / cplxblur=20.0 / qblur=0.5 / vbv_maxrate=50000 / vbv_bufsize=50000 / nal_hrd=none / ip_ratio=1.50 / pb_ratio=1.30 / aq=1:1.00
Language : English
Default : No
Forced : No
Audio #2
ID : 2
Format : DTS
Format/Info : Digital Theater Systems
Codec ID : A_DTS
Duration : 1h 41mn
Bit rate mode : Constant
Bit rate : 1 510 Kbps
Channel(s) : 6 channels
Channel positions : Front: L C R, Side: L R, LFE
Sampling rate : 48.0 KHz
Bit depth : 16 bits
Compression mode : Lossy
Stream size : 1.07 GiB (10%)
Title : ViruseProject
Language : Russian
Default : Yes
Forced : No
Audio #3
ID : 3
Format : DTS
Format/Info : Digital Theater Systems
Codec ID : A_DTS
Duration : 1h 41mn
Bit rate mode : Constant
Bit rate : 1 510 Kbps
Channel(s) : 6 channels
Channel positions : Front: L C R, Side: L R, LFE
Sampling rate : 48.0 KHz
Bit depth : 16 bits
Compression mode : Lossy
Stream size : 1.07 GiB (10%)
Language : Portuguese
Default : No
Forced : No
Text #4
ID : 4
Format : UTF-8
Codec ID : S_TEXT/UTF8
Codec ID/Info : UTF-8 Plain Text
Language : English
Default : No
Forced : No
Свернуть

Скринлист
Изображение
Свернуть

Скриншоты
Изображение
Изображение
Изображение
Изображение
Свернуть


Последний раз редактировалось Свибл 2012-07-31 22:54, всего редактировалось 2 раз(а).
Не в сети
Профиль  
 Добавлено: 2012-07-31 18:06 (спустя 40 минут)
Аватара пользователя
Стаж: 8 лет 9 месяцев
Сообщений: 98
Спасибок: 223
:dan_ser:
Не в сети
Профиль  
 Добавлено: 2012-07-31 22:38 (спустя 4 часа)
Аватара пользователя
Стаж: 8 лет 3 месяца
Возраст: 43
Сообщений: 3290
Спасибок: 21012
Лайков: 3
Для HD и HQRip-ов необходимы скриншоты в формате PNG, для остальных форматов PNG так же рекомендуется.
Исправьте пожалуйста :)
Как все исправите, то сообщите пожалуйста мне или любому модератору видео, обязательно со ссылкой на релиз
_________________
Изображение
Не в сети
Профиль  
Начать новую темуОтветить на тему  [ Сообщений: 3 ] 
Вы не можете начинать темы
Вы не можете отвечать на сообщения
Вы не можете редактировать свои сообщения
Вы не можете удалять свои сообщения
cron