Правила форума

  • В этом разделе создание новых тем Запрещено.
  • Для создания новых тем пользуйтесь Корневым разделом DVD и HD фильмы.
Начать новую темуОтветить на тему  [ 1 сообщение ] 
Торрент файл
Размер: 2.99 GB • Зарегистрирован: 2 года 8 месяцев • Статус: T Временный релиз
Скачан: 25 раз • Желающих скачать: 0 • Поблагодарили: 15 раз
 Раздают: 0  |  0 KB/s  ]   Качают: 0  |  0 KB/s  ] 
 Полного источника не было 7 месяцев 
Сообщения
 Добавлено: 2014-04-06 10:56
Книголюб
Аватара пользователя
Стаж: 7 лет 2 месяца
Сообщений: 2823
Спасибок: 48828
Лайков: 73
20 футов под землёй: И пала тьма
20 Ft Below: The Darkness Descending

Изображение


Год выпуска: 2014
Страна: США (Odyssey Motion Pictures, Blue Dragon Entertainment)
Жанр: триллер
Продолжительность: 01:36:14
Перевод: Любительский (двухголосый закадровый)

Режиссёр: Марк Клебанофф
В ролях: Дэнни Трехо, Кинга Филиппс, Фрэнк Крюгер, Джон Хенниган, Тиффани Адамс, Кристофф Ст. Джон, Луис Мэндилор, Майкл Рене Уолтон, Даррен Дарнбаро, Чейз Остин
Описание: Под улицами Нью-Йорка, в тени заброшенных тоннелей метро, скрыт мрачный и опасный мир. Когда молодая девушка-режиссер отправляется в эти тоннели, она обнаруживает там нечто пострашнее тьмы.
Мировая премьера: 18 марта 2014

Качество: WEB-DL 720р
Формат: MKV
Видео кодек: H.264
Аудио кодек: AC3 (Dolby Digital)
Видео: 1280x718 (41:23) 23.976fps 3 978 Kbps
Аудио #1: RUS 48000Hz stereo 192kbps
Аудио #2: ENG 48000Hz stereo 192kbps
MediaInfo
General
Unique ID : 203069955733574563740990934005236681645 (0x98C5D9D1A69E6C0AB6D0AA24BEECCBAD)
Complete name : K:\Torrent\20.Ft.Below.The.Darkness.Descending.2014.WEB.DL.720p.mkv
Format : Matroska
Format version : Version 2
File size : 2.99 GiB
Duration : 1h 36mn
Overall bit rate : 4 450 Kbps
Encoded date : UTC 2014-04-06 00:29:49
Writing application : mkvmerge v2.9.9 ('Tutu') built on Nov 25 2009 21:13:32
Writing library : libebml v0.7.9 + libmatroska v0.8.1

Video
ID : 1
Format : AVC
Format/Info : Advanced Video Codec
Format profile : High@L3.1
Format settings, CABAC : No
Format settings, ReFrames : 2 frames
Codec ID : V_MPEG4/ISO/AVC
Duration : 1h 36mn
Bit rate : 3 978 Kbps
Width : 1 280 pixels
Height : 718 pixels
Display aspect ratio : 16:9
Frame rate mode : Constant
Frame rate : 23.976 fps
Color space : YUV
Chroma subsampling : 4:2:0
Bit depth : 8 bits
Scan type : Progressive
Bits/(Pixel*Frame) : 0.181
Stream size : 2.67 GiB (89%)
Title : -=NNM-CLUB.RU=-
Language : English
Default : No
Forced : No
Color primaries : BT.709
Transfer characteristics : BT.709
Matrix coefficients : BT.709

Audio #1
ID : 2
Format : AC-3
Format/Info : Audio Coding 3
Mode extension : CM (complete main)
Format settings, Endianness : Big
Codec ID : A_AC3
Duration : 1h 36mn
Bit rate mode : Constant
Bit rate : 192 Kbps
Channel(s) : 2 channels
Channel positions : Front: L R
Sampling rate : 48.0 KHz
Bit depth : 16 bits
Compression mode : Lossy
Stream size : 132 MiB (4%)
Title : AC3.192.Kbps (2ch) Russian (DVO Влад и Снежинка)
Language : Russian
Default : No
Forced : Yes

Audio #2
ID : 3
Format : AC-3
Format/Info : Audio Coding 3
Mode extension : CM (complete main)
Format settings, Endianness : Big
Codec ID : A_AC3
Duration : 1h 36mn
Bit rate mode : Constant
Bit rate : 192 Kbps
Channel(s) : 2 channels
Channel positions : Front: L R
Sampling rate : 48.0 KHz
Bit depth : 16 bits
Compression mode : Lossy
Stream size : 132 MiB (4%)
Title : AC3.192.Kbps (2ch) English
Language : English
Default : No
Forced : No

Text
ID : 4
Format : UTF-8
Codec ID : S_TEXT/UTF8
Codec ID/Info : UTF-8 Plain Text
Title : English (SDH)
Language : English
Default : No
Forced : No

Menu
00:00:00.000 : en:Chapter 1
00:06:34.000 : en:Chapter 2
00:13:53.000 : en:Chapter 3
00:23:14.000 : en:Chapter 4
00:32:51.000 : en:Chapter 5
00:42:29.000 : en:Chapter 6
00:51:11.000 : en:Chapter 7
00:59:47.000 : en:Chapter 8
01:08:06.000 : en:Chapter 9
01:17:59.000 : en:Chapter 10
01:24:15.000 : en:Chapter 11
01:32:02.000 : en:Chapter 12


Свернуть

Скриншоты
Изображение
Изображение
Изображение
Свернуть
 vitso нравится это.
Не в сети
Профиль  
Начать новую темуОтветить на тему  [ 1 сообщение ] 
Вы не можете начинать темы
Вы не можете отвечать на сообщения
Вы не можете редактировать свои сообщения
Вы не можете удалять свои сообщения