Правила форума

  • В этом разделе создание новых тем Запрещено.
  • Для создания новых тем пользуйтесь Корневым разделом DVD и HD фильмы.
Начать новую темуОтветить на тему  [ Сообщений: 2 ] 
Торрент файл
Размер: 16.43 GB • Зарегистрирован: 5 лет 2 месяца • Статус: Проверено
Скачан: 14 раз • Желающих скачать: 0 • Поблагодарили: 5 раз
 Раздают: 0  |  0 KB/s  ]   Качают: 0  |  0 KB/s  ] 
 Полного источника не было 2 года 4 месяца 
Сообщения
 Добавлено: 2011-09-26 07:57
Модератор релиз-группы
Аватара пользователя
Стаж: 9 лет 1 месяц
Возраст: 97
Сообщений: 11659
Спасибок: 6530
Лайков: 269
2001 маньяк: Дилогия / 2001 Maniacs: Dilogy

Изображение

2001 маньяк
Год выхода: 2005
Страна: США
Жанр: Комедия,Ужасы
Продолжительность: 01:27:46
Перевод: Дубляж
Оригинальная звуковая дорожка
Субритры: Русские, Английские
Режиссер: Тим Салливан
В ролях: Роберт Инглунд, Лин Шэй, Джузеппе Эндрюс, Джей Гиллеспи, Марла Малкольм, Дилан Эдрингтон, Мэттью Кэри, Петер Стормаре, Джина Мари Хикин, Брайан Гросс
Описание: Две группы студентов отправляются во время каникул на пляжи Флориды. И случайно оказываются в небольшом гостеприимном городке Чудная Долина, в котором его жители и мэр Бакман готовят грандиозный праздник. Веселье, угощения и разнообразные запретные удовольствия убеждают гостей остаться на всю ночь. Чтобы чуть позже стать участниками главного сюрприза
Качество: BDRip
Формат: MKV
Видео: MPEG-4 (H.264),1920x1080, 23.976 fps, ~11.5 Mbps, 0.225 bit/pixel
Аудио: 1. DTS, 48 KHz, 6 ch, 755 Kbps, (Русский дублированный)
Аудио: 2. DTS, 48 KHz, 6 ch, 1510 Kbps, (Оригинальный английский)
Cубтитры: Русские, Английские

Скриншоты
Изображение

Изображение

Изображение

Изображение
Свернуть

Mi
Format : Matroska
Format version : Version 2
File size : 8.41 GiB
Duration : 1h 27mn
Overall bit rate : 13.7 Mbps
Movie name : 2001.Maniacs.2005.1080p.Bluray.X264-DIMENSION
Encoded date : UTC 2010-09-03 01:37:04
Writing application : mkvmerge v3.2.0 ('Beginnings') built on Feb 12 2010 16:46:17
Writing library : libebml v0.7.9 + libmatroska v0.8.1

Video
ID : 1
Format : AVC
Format/Info : Advanced Video Codec
Format profile : High@L4.1
Format settings, CABAC : Yes
Format settings, ReFrames : 4 frames
Codec ID : V_MPEG4/ISO/AVC
Duration : 1h 27mn
Bit rate : 11.5 Mbps
Width : 1 920 pixels
Height : 1 080 pixels
Display aspect ratio : 16:9
Frame rate : 23.976 fps
Color space : YUV
Chroma subsampling : 4:2:0
Bit depth : 8 bits
Scan type : Progressive
Bits/(Pixel*Frame) : 0.230
Stream size : 6.85 GiB (81%)
Writing library : x264 core 104 r1703 cd21d05
Encoding settings : cabac=1 / ref=4 / deblock=1:-2:-2 / analyse=0x3:0x113 / me=umh / subme=9 / psy=1 / psy_rd=1.03:0.01 / mixed_ref=1 / me_range=20 / chroma_me=1 / trellis=1 / 8x8dct=1 / cqm=0 / deadzone=21,11 / fast_pskip=0 / chroma_qp_offset=-3 / threads=6 / sliced_threads=0 / nr=0 / decimate=1 / interlaced=0 / constrained_intra=0 / bframes=3 / b_pyramid=2 / b_adapt=2 / b_bias=0 / direct=3 / weightb=1 / open_gop=0 / weightp=2 / keyint=250 / keyint_min=23 / scenecut=40 / intra_refresh=0 / rc_lookahead=40 / rc=2pass / mbtree=1 / bitrate=11452 / ratetol=1.0 / qcomp=0.60 / qpmin=10 / qpmax=51 / qpstep=4 / cplxblur=20.0 / qblur=0.5 / ip_ratio=1.40 / aq=1:1.10
Language : English

Audio #1
ID : 2
Format : DTS
Format/Info : Digital Theater Systems
Codec ID : A_DTS
Duration : 1h 27mn
Bit rate mode : Constant
Bit rate : 755 Kbps
Channel(s) : 6 channels
Channel positions : Front: L C R, Side: L R, LFE
Sampling rate : 48.0 KHz
Bit depth : 24 bits
Compression mode : Lossy
Stream size : 474 MiB (6%)
Title : дубляж
Language : Russian

Audio #2
ID : 3
Format : DTS
Format/Info : Digital Theater Systems
Codec ID : A_DTS
Duration : 1h 27mn
Bit rate mode : Constant
Bit rate : 1 510 Kbps
Channel(s) : 6 channels
Channel positions : Front: L C R, Side: L R, LFE
Sampling rate : 48.0 KHz
Bit depth : 24 bits
Compression mode : Lossy
Stream size : 948 MiB (11%)
Language : English

Text #1
ID : 4
Format : UTF-8
Codec ID : S_TEXT/UTF8
Codec ID/Info : UTF-8 Plain Text
Language : Russian

Text #2
ID : 5
Format : UTF-8
Codec ID : S_TEXT/UTF8
Codec ID/Info : UTF-8 Plain Text
Language : English

Свернуть

Свернуть
2001 маньяк II
Год выхода: 2010
Страна: США
Жанр: Комедия,Ужасы
Продолжительность: 01:19:01
Перевод: Двухголосый закадровый
Оригинальная звуковая дорожка
Субритры: Русские, Английские
Режиссер: Тим Салливан
В ролях: Билл Моусли, Лин Шэй, Криста Кэмпбелл, Нивек Огре, Андреа Леон, Ахмед Бест, Кэти Мари Джонсон, Аса Выкофф, Алекс Луриа
Описание: В поисках новых жертв жители Плезант Вэлли во главе с мэром Бакменом отправляются на север. Покинув родную Джорджию, кровожадные призраки-конфедераты разбивают лагерь в полях Айовы, куда случайно заезжает команда заблудившихся телевизионщиков. Пожелав заснять для своего телешоу эксцентричных деревенщин, гости подписывают себе смертный приговор.

Качество: BDRip
Формат: MKV
Видео: MPEG-4 (H.264),1920x1080, 23.976 fps, ~ 13.6 Mbps, 0.268 bit/pixel
Аудио: 1. AC3, 48 kHz, 2 ch, ~ 192.00 kbps ( двухголосый закадровый)
Аудио: 2. DTS, 48 kHz, 6 ch, ~ 755.00 kbps (Оригинальный английский)
скриншоты
Изображение

Изображение

Изображение

Изображение
Свернуть

Mi
Format : Matroska
Format version : Version 2
File size : 8.02 GiB
Duration : 1h 19mn
Overall bit rate : 14.5 Mbps
Encoded date : UTC 2011-03-28 08:31:41
Writing application : mkvmerge v3.0.0 ('Hang up your Hang-Ups') built on Jan 6 2010 22:49:38
Writing library : libebml v0.7.9 + libmatroska v0.8.1

Video
ID : 1
Format : AVC
Format/Info : Advanced Video Codec
Format profile : High@L4.1
Format settings, CABAC : Yes
Format settings, ReFrames : 4 frames
Codec ID : V_MPEG4/ISO/AVC
Duration : 1h 19mn
Bit rate : 13.6 Mbps
Width : 1 920 pixels
Height : 1 080 pixels
Display aspect ratio : 16:9
Frame rate : 23.976 fps
Color space : YUV
Chroma subsampling : 4:2:0
Bit depth : 8 bits
Scan type : Progressive
Bits/(Pixel*Frame) : 0.274
Stream size : 7.34 GiB (91%)
Title : RG Uralmix
Writing library : x264 core 107 r1772 c9dad9e
Encoding settings : cabac=1 / ref=4 / deblock=1:-3:-3 / analyse=0x3:0x113 / me=umh / subme=9 / psy=1 / psy_rd=1.10:0.15 / mixed_ref=1 / me_range=48 / chroma_me=1 / trellis=2 / 8x8dct=1 / cqm=0 / deadzone=21,11 / fast_pskip=0 / chroma_qp_offset=-2 / threads=12 / sliced_threads=0 / nr=0 / decimate=1 / interlaced=0 / constrained_intra=0 / bframes=6 / b_pyramid=2 / b_adapt=2 / b_bias=0 / direct=3 / weightb=1 / open_gop=0 / weightp=2 / keyint=250 / keyint_min=23 / scenecut=40 / intra_refresh=0 / rc_lookahead=60 / rc=2pass / mbtree=1 / bitrate=13608 / ratetol=1.0 / qcomp=0.70 / qpmin=10 / qpmax=51 / qpstep=4 / cplxblur=20.0 / qblur=0.5 / vbv_maxrate=50000 / vbv_bufsize=50000 / ip_ratio=1.40 / aq=1:0.90 / nal_hrd=none
Language : English

Audio #1
ID : 2
Format : AC-3
Format/Info : Audio Coding 3
Mode extension : CM (complete main)
Codec ID : A_AC3
Duration : 1h 19mn
Bit rate mode : Constant
Bit rate : 192 Kbps
Channel(s) : 2 channels
Channel positions : Front: L R
Sampling rate : 48.0 KHz
Bit depth : 16 bits
Compression mode : Lossy
Stream size : 109 MiB (1%)
Language : Russian

Audio #2
ID : 3
Format : DTS
Format/Info : Digital Theater Systems
Format profile : ES
Codec ID : A_DTS
Duration : 1h 19mn
Bit rate mode : Constant
Bit rate : 755 Kbps
Channel(s) : 6 channels
Channel positions : Front: L C R, Side: L R, LFE
Sampling rate : 48.0 KHz
Bit depth : 24 bits
Compression mode : Lossy
Stream size : 426 MiB (5%)
Language : English

Свернуть
Свернуть
Изображение
_________________
Изображение
Не в сети
Профиль  
 Добавлено: 2013-10-07 16:06 (спустя 2 года)
Аватара пользователя
Стаж: 7 лет 2 месяца
Сообщений: 7167
Спасибок: 81973
Лайков: 2438
Мне не понравились обе серии.Но это на любителя если есть такие! :-D


Тема поднималась пользователем Артурыч 2013-10-07 16:06.
Не в сети
Профиль  
Начать новую темуОтветить на тему  [ Сообщений: 2 ] 
Вы не можете начинать темы
Вы не можете отвечать на сообщения
Вы не можете редактировать свои сообщения
Вы не можете удалять свои сообщения