Правила форума

  • В этом разделе создание новых тем Запрещено.
  • Для создания новых тем пользуйтесь Корневым разделом DVD и HD фильмы.
Начать новую темуОтветить на тему  [ Сообщений: 4 ] 
Торрент файл
Размер: 4.58 GB • Зарегистрирован: 4 года 7 месяцев • Статус: Проверено
Скачан: 72 раза • Желающих скачать: 0 • Поблагодарили: 16 раз
 Раздают: 0  |  0 KB/s  ]   Качают: 0  |  0 KB/s  ] 
 Полного источника не было 3 месяца 24 дня 
Сообщения
 Добавлено: 2012-04-23 10:18
Top-releaser
Аватара пользователя
Стаж: 7 лет 3 месяца
Возраст: 25
Сообщений: 1036
Спасибок: 2694
Лайков: 9
2016: Конец ночи
Hell


«Солнце нас сожжёт»

Изображение


Год выхода: 2011
Страна: Германия, Швейцария

Жанр: ужасы, фантастика, триллер
Продолжительность: 01:29:27
Перевод: Дублированное [Лицензия]

Режиссер: Тим Фельбаум
Сценарий: Тим Фельбаум, Оливер Каль, Томас Вёбке
Продюсер: Габриэль Уолтер, Томас Вёбке, Роланд Эммерих
Оператор: Маркус Фёрдерер
Композитор: Лоренц Дэнжел

В ролях: Ханна Херцшпрунг. Ларс Айдингер, Стипе Эрчег, Лиза Викари, Йоанн Бланк, Марко Каламандрей, Кристоф Гоглер, Ангела Винклер

Описание: Перед тем как окончательно погаснуть, Солнце увеличилось до невероятных размеров и выжгло всю Землю, превратив ее в непригодную для жизни пустыню.

Среди немногих выживших — группа молодых людей, которые отправились в горы в поисках воды и пищи. Но эта мысль посетила не только их, и очень скоро ребята оказываются втянуты в безжалостную борьбу за выживание.


Изображение

Изображение

Качество BDRip 1080p R5
Формат: Mkv

Видео: MPEG4 Video (H264) 1920x816 23.98fps
Аудио 1: Dolby AC3 48000Hz 6ch 384 Kbps
Аудио 2: Dts 48000Hz 6ch 1 510 Kbps

Изображение

MediaInfo
General
Unique ID : 238049570212192981216845720981084202884 (0xB316ADF71EFAC2A8809B9799181E6784)
Complete name : I:\Download\Hell.DVD_RG(1080p).mkv
Format : Matroska
Format version : Version 2
File size : 4.58 GiB
Duration : 1h 29mn
Overall bit rate : 7 331 Kbps
Movie name : Hell.2011.D.BDRip.1080p.FSB by Uniongang.tv
Encoded date : UTC 2012-04-20 17:14:41
Writing application : mkvmerge v5.3.0 ('I could have danced') built on Feb 9 2012 10:38:07
Writing library : libebml v1.2.3 + libmatroska v1.3.0

Video
ID : 1
Format : AVC
Format/Info : Advanced Video Codec
Format profile : High@L4.1
Format settings, CABAC : Yes
Format settings, ReFrames : 5 frames
Codec ID : V_MPEG4/ISO/AVC
Duration : 1h 29mn
Bit rate : 5 291 Kbps
Width : 1 920 pixels
Height : 816 pixels
Display aspect ratio : 2.35:1
Frame rate : 23.976 fps
Color space : YUV
Chroma subsampling : 4:2:0
Bit depth : 8 bits
Scan type : Progressive
Bits/(Pixel*Frame) : 0.141
Stream size : 3.31 GiB (72%)
Title : Hell.2011.D.BDRip.1080p.FSB by Uniongang.tv
Writing library : x264 core 122 r2184 5c85e0a
Encoding settings : cabac=1 / ref=5 / deblock=1:-1:-1 / analyse=0x3:0x113 / me=umh / subme=7 / psy=1 / psy_rd=1.00:0.15 / mixed_ref=1 / me_range=16 / chroma_me=1 / trellis=1 / 8x8dct=1 / cqm=0 / deadzone=21,11 / fast_pskip=0 / chroma_qp_offset=-3 / threads=18 / sliced_threads=0 / nr=0 / decimate=1 / interlaced=0 / bluray_compat=0 / constrained_intra=0 / bframes=3 / b_pyramid=2 / b_adapt=1 / b_bias=0 / direct=1 / weightb=1 / open_gop=0 / weightp=2 / keyint=250 / keyint_min=23 / scenecut=40 / intra_refresh=0 / rc_lookahead=40 / rc=crf / mbtree=1 / crf=20.0 / qcomp=0.60 / qpmin=0 / qpmax=69 / qpstep=4 / ip_ratio=1.40 / aq=1:1.00
Default : Yes
Forced : No

Audio #1
ID : 2
Format : AC-3
Format/Info : Audio Coding 3
Mode extension : CM (complete main)
Codec ID : A_AC3
Duration : 1h 29mn
Bit rate mode : Constant
Bit rate : 384 Kbps
Channel(s) : 6 channels
Channel positions : Front: L C R, Side: L R, LFE
Sampling rate : 48.0 KHz
Bit depth : 16 bits
Compression mode : Lossy
Delay relative to video : 16ms
Stream size : 246 MiB (5%)
Title : Hell.2011.D.BDRip.1080p.FSB by Uniongang.tv
Language : Russian
Default : No
Forced : No

Audio #2
ID : 3
Format : DTS
Format/Info : Digital Theater Systems
Codec ID : A_DTS
Duration : 1h 29mn
Bit rate mode : Constant
Bit rate : 1 510 Kbps
Channel(s) : 6 channels
Channel positions : Front: L C R, Side: L R, LFE
Sampling rate : 48.0 KHz
Bit depth : 24 bits
Compression mode : Lossy
Stream size : 966 MiB (21%)
Title : DTS
Language : German
Default : No
Forced : No

Menu
00:00:00.000 : de:00:00:00.000
00:02:25.354 : de:00:02:25.354
00:05:56.982 : de:00:05:56.982
00:10:25.458 : de:00:10:25.458
00:16:18.477 : de:00:16:18.477
00:21:17.735 : de:00:21:17.735
00:28:15.611 : de:00:28:15.611
00:35:30.128 : de:00:35:30.128
00:40:29.761 : de:00:40:29.761
00:46:21.654 : de:00:46:21.654
00:53:00.219 : de:00:53:00.219
00:59:01.329 : de:00:59:01.329
01:08:24.350 : de:01:08:24.350
01:13:31.616 : de:01:13:31.616
01:19:18.420 : de:01:19:18.420
01:24:25.727 : de:01:24:25.727


Свернуть
Скриншоты

Изображение
Изображение
Изображение
Изображение
Изображение

Свернуть
Не в сети
Профиль  
 Добавлено: 2012-04-23 19:55 (спустя 9 часов)
Стаж: 7 лет 7 месяцев
Сообщений: 44
Напишите пожалуйста как фильм?
Не в сети
Профиль  
 Добавлено: 2012-04-23 20:04 (спустя 9 минут)
Top-seeder
Аватара пользователя
Стаж: 8 лет 1 месяц
Возраст: 31
Сообщений: 586
Спасибок: 2
Лайков: 146
хрень
Не в сети
Профиль  
 Добавлено: 2012-04-27 13:39 (спустя 3 дня)
Стаж: 8 лет 3 месяца
Сообщений: 15
ужасы?! Некакие это не ужасы,а фантастика в обработке вообщем хрень, не советую!
Не в сети
Профиль  
Начать новую темуОтветить на тему  [ Сообщений: 4 ] 
Вы не можете начинать темы
Вы не можете отвечать на сообщения
Вы не можете редактировать свои сообщения
Вы не можете удалять свои сообщения