Правила форума

  • В этом разделе создание новых тем Запрещено.
  • Для создания новых тем пользуйтесь Корневым разделом DVD и HD фильмы.
Начать новую темуОтветить на тему  [ Сообщений: 3 ] 
Торрент файл
Размер: 10.02 GB • Зарегистрирован: 6 лет 4 месяца • Статус: Проверено
Скачан: 54 раза • Желающих скачать: 0 • Поблагодарили: 12 раз
 Раздают: 0  |  0 KB/s  ]   Качают: 0  |  0 KB/s  ] 
 Полного источника не было 6 месяцев 
Сообщения
 Добавлено: 2010-07-22 12:53
Аватара пользователя
Стаж: 8 лет 2 месяца
Возраст: 23
Сообщений: 1671
Спасибок: 320
Лайков: 2
Изображение | Изображение | Score
21 грамм / 21 Grams

Изображение

Год выпуска: 2003
Страна: США Изображение
Жанр: Триллер, драма, криминал
Продолжительность: 02:04:30
Перевод: Профессиональный (полное дублирование) с Blu-Ray "ПАРАДИЗ-ВC"
Русские субтитры: есть (с Blu-Ray "ПАРАДИЗ-ВC")

Режиссер: Алехандро Гонсалес Иньярриту
Сценарий: Гильермо Арриага
Продюсер: Гильермо Арриага, Алехандро Гонсалес Иньярриту, Тед Хоуп
Оператор: Родриго Прието
Композитор: Густаво Сантаолалья

В ролях: Шон Пенн, Наоми Уоттс, Дэнни Хьюстон, Карли Наон, Клер Пакис, Бенисио Дель Торо,
Ник Николс, Шарлотта Генсбур, Джон Рубинстайн, Эдди Марсан
Описание:
Говорят, что каждый человек в момент смерти теряет 21 грамм. Столько весит горстка монет в пять центов, плитка шоколада, птица колибри…
«21 грамм» — это история о надежде и человечности, жизнелюбии и выживании. Независимо от того, боитесь вы смерти или нет, она приходит, и в этот момент ваше тело становится на 21 грамм легче. Быть может, это вес человеческой души?
Доп. информация:
kinopoisk.ru (8.07) | imdb.com (7.90)
Качество: BDRip 720p
Формат: MKV
Видео кодек: H.264
Аудио кодек: DTS,
Видео: 1280x694, 8500 kbps, 23.976 fps
Аудио1: Русский DTS 5.1, 48 KHz, 1536 kbps | профессиональный (полное дублирование) с Blu-Ray "ПАРАДИЗ-ВC"
Аудио2: Английский DTS 5.1, 48 KHz, 1536 kbps
Субтитры: Русские, английские
Знаете ли Вы, что...
  • Практически все кадры фильма были отсняты с использованием недорогих ручных камер.
  • Съемки проходили в хронологическом порядке, хотя в самой картине происходящие события перемешаны.
  • Наоми Уоттс согласилась на исполнение роли, даже не прочитав сценария.
  • Название картины позаимствовано из работ доктора Дункана МакДугалла начала 20 века. МакДугалл взвешивал пациентов, находящихся при смерти, до и после фактической кончины, пытаясь доказать, что душа материальна и можно даже узнать ее вес. На самом деле, результаты этих исследований были довольно противоречивы, но мысль о том, что душа человека весит ровно 21 грамм, прочно закрепилась в умах обывателей.
  • Во время сцены, в ходе которой Джек Джордан хочет повеситься, его спасает заключенный с огромной татуировкой на груди «Maria Eladia». Именно так зовут жену режиссера картины Алехандро Гонзалез Инарриту, которой, собственно говоря, и посвящен этот фильм.
Свернуть
Награды и Премии
Изображение

Свернуть
Скриншоты
Изображение
Изображение
Изображение
Изображение
Изображение
Изображение
Свернуть
MediaInfo
General
Complete name : 21 Grams.2003.BD.Rip.720p.h264.Rus.Eng.mkv
Format : Matroska
File size : 10.0 GiB
Duration : 2h 4mn
Overall bit rate : 11.5 Mbps
Encoded date : UTC 2010-07-06 22:40:18
Writing application : mkvmerge v3.4.0 ('Rapunzel') built on May 15 2010 09:38:20
Writing library : libebml v0.8.0 + libmatroska v0.9.0
Video
ID : 1
Format : AVC
Format/Info : Advanced Video Codec
Format profile : High@L4.1
Format settings, CABAC : Yes
Format settings, ReFrames : 9 frames
Muxing mode : Container profile=Unknown@4.1
Codec ID : V_MPEG4/ISO/AVC
Duration : 2h 4mn
Bit rate : 8 259 Kbps
Nominal bit rate : 8 500 Kbps
Width : 1 280 pixels
Height : 694 pixels
Display aspect ratio : 16:9
Frame rate : 23.976 fps
Resolution : 8 bits
Colorimetry : 4:2:0
Scan type : Progressive
Bits/(Pixel*Frame) : 0.388
Stream size : 7.19 GiB (72%)
Writing library : x264 core 100 r1659 57b2e56
Encoding settings : cabac=1 / ref=9 / deblock=1:-3:-3 / analyse=0x3:0x113 / me=tesa / subme=10 / psy=1 / psy_rd=1.00:0.10 / mixed_ref=1 / me_range=16 / chroma_me=1 / trellis=2 / 8x8dct=1 / cqm=0 / deadzone=21,11 / fast_pskip=0 / chroma_qp_offset=-3 / threads=6 / sliced_threads=0 / nr=0 / decimate=0 / interlaced=0 / constrained_intra=0 / bframes=6 / b_pyramid=2 / b_adapt=2 / b_bias=0 / direct=3 / weightb=1 / open_gop=0 / weightp=2 / keyint=250 / keyint_min=25 / scenecut=40 / intra_refresh=0 / rc=2pass / mbtree=0 / bitrate=8500 / ratetol=1.0 / qcomp=0.60 / qpmin=10 / qpmax=51 / qpstep=4 / cplxblur=20.0 / qblur=0.5 / ip_ratio=1.40 / pb_ratio=1.30 / aq=1:0.50
Language : English
Audio #1
ID : 2
Format : DTS
Format/Info : Digital Theater Systems
Codec ID : A_DTS
Duration : 2h 4mn
Bit rate mode : Constant
Bit rate : 1 510 Kbps
Channel(s) : 6 channels
Channel positions : Front: L C R, Side: L R, LFE
Sampling rate : 48.0 KHz
Resolution : 24 bits
Stream size : 1.31 GiB (13%)
Title : Dublyazh DTS 5.1 1536 kbps
Language : Russian
Audio #2
ID : 3
Format : DTS
Format/Info : Digital Theater Systems
Codec ID : A_DTS
Duration : 2h 4mn
Bit rate mode : Constant
Bit rate : 1 510 Kbps
Channel(s) : 6 channels
Channel positions : Front: L C R, Side: L R, LFE
Sampling rate : 48.0 KHz
Resolution : 24 bits
Stream size : 1.31 GiB (13%)
Title : DTS 5.1 1536 kbps
Language : English
Text #1
ID : 4
Format : UTF-8
Codec ID : S_TEXT/UTF8
Codec ID/Info : UTF-8 Plain Text
Language : Russian
Text #2
ID : 5
Format : UTF-8
Codec ID : S_TEXT/UTF8
Codec ID/Info : UTF-8 Plain Text
Language : English
Menu
00:00:00.000 : en:1. Mom Is Waiting for Us
00:04:03.535 : en:2. So This Is Death's Waiting Room?
00:07:17.103 : en:3. Jesus Is Our Hope
00:11:20.972 : en:4. Call an Ambulance
00:14:30.745 : en:5. Washing the Past
00:18:32.111 : en:6. There's No Hitting in This House
00:22:11.455 : en:7. Nobody Saw Him
00:26:51.944 : en:8. Have You Been Drinking?
00:31:30.806 : en:9. Heart-to-Heart
00:38:35.188 : en:10. Duty Bound
00:43:18.930 : en:11. The First Day of My New Life
00:45:32.521 : en:12. Life Does Not Go On
00:49:52.990 : en:13. Original Owner
00:52:48.415 : en:14. Bled Dry
00:54:51.455 : en:15. God Even Knows When a Single Hair Moves...
00:57:00.751 : en:16. Going to Heaven
00:59:47.417 : en:17. Your Friend
01:03:26.511 : en:18. Did You Bring What I Asked You For?
01:06:06.838 : en:19. Making Plans
01:10:44.907 : en:20. Coming Home
01:14:53.614 : en:21. Hidden Numbers
01:16:33.047 : en:22. You Shouldn't Have Done It
01:20:47.259 : en:23. Can I See You Again?
01:24:28.063 : en:24. A Good Heart
01:36:01.923 : en:25. Lack of Evidence
01:39:50.109 : en:26. Daddy, a Pigeon!
01:43:22.822 : en:27. Despair
01:45:18.145 : en:28. Red Shoelaces
01:49:31.690 : en:29. You're Pregnant
01:50:28.121 : en:30. How Many Times?
01:55:34.302 : en:31. 21 Grams
01:58:18.133 : en:32. End Titles
Свернуть
Дополнительно
Рип сделан с английского издания фильма, содержащего лучшее видео из всех доступных.
Видео сжимается плохо, поэтому битрейт довольно большой.
Релиз от -DaRkY-
Часть оформления взята тут

Свернуть
_________________
sumsumsumsum sumsum


Последний раз редактировалось Sum42 2010-07-22 13:32, всего редактировалось 2 раз(а).
Не в сети
Профиль  
 Добавлено: 2011-01-22 00:01 (спустя 5 месяцев)
Аватара пользователя
Стаж: 8 лет
Сообщений: 31
Чем Оскаристее фильм, тем блевОтнее впечатление от просмотра, как-то так вышло.
Для отечественного зрителя фильм однозначно УГ.
Не в сети
Профиль  
 Добавлено: 2011-04-29 21:58 (спустя 3 месяца 7 дней)
Аватара пользователя
Стаж: 9 лет 1 месяц
Сообщений: 30
Спасибок: 25
Лайков: 1
Филь м, тяжелый, но интересный.
Понравилась игра актеров.
Спасибо за раздачу.
Раздаю.
Не в сети
Профиль  
Начать новую темуОтветить на тему  [ Сообщений: 3 ] 
Вы не можете начинать темы
Вы не можете отвечать на сообщения
Вы не можете редактировать свои сообщения
Вы не можете удалять свои сообщения