Правила форума

  • В этом разделе создание новых тем Запрещено.
  • Для создания новых тем пользуйтесь Корневым разделом DVD и HD фильмы.
Начать новую темуОтветить на тему  [ 1 сообщение ] 
Торрент файл
Размер: 4.61 GB • Зарегистрирован: 3 года 6 месяцев • Статус: Проверено
Скачан: 87 раз • Желающих скачать: 0 • Поблагодарили: 20 раз
 Раздают: 0  |  0 KB/s  ]   Качают: 0  |  0 KB/s  ] 
 Полного источника не было 1 год 5 месяцев 
Сообщения
 Добавлено: 2013-05-18 00:09
Top-releaser
Аватара пользователя
Стаж: 6 лет 11 месяцев
Возраст: 23
Сообщений: 2084
Спасибок: 11191
Лайков: 13

Изображение

21 и больше / 21 & Over

«Наконец-то»

Год выпуска: 2013
Страна: США

Жанр: комедия
Продолжительность: 01:29:19
Перевод: Профессиональный (полное дублирование)

Режиссер: Джон Лукас / Jon Lucas, Скотт Мур / Scott Moore
Сценарий: Джон Лукас / Jon Lucas, Скотт Мур / Scott Moore
Продюсер: Хьюго Шонг / Hugo Shong, Энди Ян / Andy Yan, Дэвид Хоберман / David Hoberman, Райан Кэвэна / Ryan Kavanaugh, Тодд Либерман / Todd Lieberman
Оператор: Терри Стэйси / Terry Stacey
Композитор: Лайл Уоркмэн / Lyle Workman

В ролях: Майлз Теллер (Miller), Скайлар Эстин (Casey), Джастин Чон (Jeff Chang), Сара Райт (Nicole), Джонатан Кельтц (Randy), Франсуа Чау (Dr. Chang), Расселл Ходжкинсон (The Chief), Дэниэл Буко (Julian), Расселл Меркадо (Jayden), Джози Лорен (Pledge Aguilar), Кристьенн Кастельянос (Pledge Gomez), Дастин Ибарра (PJ Brill)
Дублёры: Сергей Смирнов (Miller), Александр Дасевич (Jeff Chang), Даниил Эльдаров (Randy)

Бюджет: $13 000 000
Сборы в США: $25 509 821
Сборы в России: $5 184 169

Мировая премьера: 28 февраля 2013
Релиз на DVD: 30 апреля 2013, «Парадиз / Активижен»
Релиз на Blu-ray: 21 мая 2013, «Парадиз / Активижен»
Описание:Двое друзей подбивают третьего отметить его 21-ый день рождения прямо накануне важного экзамена в медицинский колледж. Никто не замечает, как одна кружка пива превращается в море выпивки, а вечеринка - в бурное и незабываемое приключение с музыкой и девчонками. И где же они окажутся утром?
Изображение 5.7/10 (4,34 users) Изображение 6.659 (5,154)
MPAA: Изображение - Лицам до 17 лет обязательно присутствие взрослого

Качество: BDRip (720p)
Видео: MPEG-4 AVC, 5437 Kбит/с, 1280x720, 23.976 кадр/с
Аудио: DTS, 6 ch, 1510 Кбит/с
MI
General
Unique ID : 230165227353040619087599338150065421956 (0xAD2835D99A170516A966F1043ED93E84)
Complete name : 21.and.Over.2013.720p.BluRay.Rus.HDCLUB.mkv
Format : Matroska
Format version : Version 4 / Version 2
File size : 4.61 GiB
Duration : 1h 33mn
Overall bit rate : 7 087 Kbps
Movie name : HDCLUB present "21 and Over (2013)"
Encoded date : UTC 2013-05-17 16:39:24
Writing application : mkvmerge v6.2.0 ('Promised Land') built on Apr 28 2013 12:22:01
Writing library : libebml v1.3.0 + libmatroska v1.4.0

Video
ID : 1
Format : AVC
Format/Info : Advanced Video Codec
Format profile : High@L4.1
Format settings, CABAC : Yes
Format settings, ReFrames : 9 frames
Codec ID : V_MPEG4/ISO/AVC
Duration : 1h 33mn
Bit rate : 5 437 Kbps
Width : 1 280 pixels
Height : 720 pixels
Display aspect ratio : 16:9
Frame rate mode : Constant
Frame rate : 23.976 fps
Color space : YUV
Chroma subsampling : 4:2:0
Bit depth : 8 bits
Scan type : Progressive
Bits/(Pixel*Frame) : 0.246
Stream size : 3.54 GiB (77%)
Title : 21.and.Over.2013.720p.BluRay.Rus.HDCLUB
Writing library : x264 core 132 r2310 76a5c3a
Encoding settings : cabac=1 / ref=9 / deblock=1:-3:-3 / analyse=0x3:0x133 / me=umh / subme=11 / psy=1 / psy_rd=1.00:0.00 / mixed_ref=1 / me_range=48 / chroma_me=1 / trellis=2 / 8x8dct=1 / cqm=0 / deadzone=21,11 / fast_pskip=0 / chroma_qp_offset=-2 / threads=12 / lookahead_threads=2 / sliced_threads=0 / nr=0 / decimate=1 / interlaced=0 / bluray_compat=0 / constrained_intra=0 / bframes=7 / b_pyramid=2 / b_adapt=2 / b_bias=0 / direct=1 / weightb=1 / open_gop=0 / weightp=2 / keyint=240 / keyint_min=23 / scenecut=40 / intra_refresh=0 / rc_lookahead=60 / rc=crf / mbtree=0 / crf=16.6 / qcomp=0.60 / qpmin=0 / qpmax=69 / qpstep=4 / vbv_maxrate=50000 / vbv_bufsize=62500 / crf_max=0.0 / nal_hrd=none / ip_ratio=1.35 / pb_ratio=1.25 / aq=1:0.80
Language : Russian
Default : Yes
Forced : No
Color primaries : BT.709
Transfer characteristics : BT.709
Matrix coefficients : BT.709

Audio
ID : 2
Format : DTS
Format/Info : Digital Theater Systems
Mode : 16
Format settings, Endianness : Big
Codec ID : A_DTS
Duration : 1h 33mn
Bit rate mode : Constant
Bit rate : 1 509 Kbps
Channel(s) : 6 channels
Channel positions : Front: L C R, Side: L R, LFE
Sampling rate : 48.0 KHz
Bit depth : 16 bits
Compression mode : Lossy
Stream size : 1 005 MiB (21%)
Title : DTS 5.1 @ 1509 kbps - Dubbed [BD RUS, Core DTS-HD]
Language : Russian
Default : Yes
Forced : No

Menu
00:00:00.000 : ru:Chapter 1
00:05:54.228 : ru:Chapter 2
00:14:47.469 : ru:Chapter 3
00:21:47.431 : ru:Chapter 4
00:29:08.997 : ru:Chapter 5
00:37:08.976 : ru:Chapter 6
00:44:17.154 : ru:Chapter 7
00:51:19.242 : ru:Chapter 8
01:00:12.734 : ru:Chapter 9
01:10:07.077 : ru:Chapter 10
01:16:20.993 : ru:Chapter 11
01:26:53.917 : ru:Chapter 12
Свернуть


"Скриншоты"
Изображение

Изображение

Изображение
Свернуть
_________________
Изображение
РАЗДАЧИ БОЛЬШЕ НЕ ПОДДЕРЖИВАЮ, простите.
Не в сети
Профиль  
Начать новую темуОтветить на тему  [ 1 сообщение ] 
Вы не можете начинать темы
Вы не можете отвечать на сообщения
Вы не можете редактировать свои сообщения
Вы не можете удалять свои сообщения
cron