Правила форума

  • В этом разделе создание новых тем Запрещено.
  • Для создания новых тем пользуйтесь Корневым разделом DVD и HD фильмы.
Начать новую темуОтветить на тему  [ Сообщений: 3 ] 
Торрент файл
Размер: 7.1 GB • Зарегистрирован: 3 года 6 месяцев • Статус: Проверено
Скачан: 235 раз • Желающих скачать: 0 • Поблагодарили: 59 раз
 Раздают: 0  |  0 KB/s  ]   Качают: 0  |  0 KB/s  ] 
 Полного источника не было 5 месяцев 21 день 
Сообщения
 Добавлено: 2013-05-17 19:10
Аватара пользователя
Стаж: 9 лет 1 месяц
Сообщений: 7975
Спасибок: 122188
Лайков: 1191
21 и больше / 21 & Over

«Наконец-то»

Изображение


Год выпуска: 2013
Страна: Изображение США
Жанр: комедия
Продолжительность: 01:33:06
Перевод: Профессиональный (полное дублирование) [Лицензия]


Режиссер: Джон Лукас, Скотт Мур
Сценарий: Джон Лукас, Скотт Мур
Продюсер: Дэвид Хоберман, Райан Кэвэна, Тодд Либерман
Оператор: Терри Стэйси
Композитор: Лайл Уоркмэн

В ролях: Скайлар Эстин, Сара Райт, Майлз Теллер, Джонатан Кельтц, Джастин Чон, Сара Райт, Джонатан Кельтц, Франсуа Чау, Расселл Ходжкинсон, Дэниэл Буко, Расселл Меркадо, Джози Лор

Описание: Двое друзей подбивают третьего отметить его 21-ый день рождения прямо накануне важного экзамена в медицинский колледж. Никто не замечает, как одна кружка пива превращается в море выпивки, а вечеринка — в бурное и незабываемое приключение с музыкой и девчонками. И где же они окажутся утром?

Изображение Изображение

Релиз группы: Изображение Раздача группы: Изображение

Качество: BDRip (1080p)
Формат: Matroska
Видео: MPEG-4 AVC, 9407 Kбит/с, 1920x1080, 23.976 кадр/с
Аудио: Русский (DTS, 48,0 КГц, 6 ch, 1510 Кбит/c)

MediaInfo
Общее
Уникальный идентификатор : 243102449027118547455432843437967541716 (0xB6E3D42004011B58AB8C51E4640605D4)
Полное имя : C:\Фильмы\21.i.boljshe.2013.BDRip.(1080p).G.Daredevil.mkv
Формат : Matroska
Версия формата : Version 2
Размер файла : 7,10 Гбайт
Продолжительность : 1 ч. 33 м.
Общий поток : 10,9 Мбит/сек
Название фильма : 21 и больше (MediaClub-kaspr)
Дата кодирования : UTC 2013-05-17 13:17:56
Программа кодирования : mkvmerge v5.7.0 ('The Whirlwind') built on Aug 7 2012 14:11:40
Библиотека кодирования : libebml v1.2.3 + libmatroska v1.3.0

Видео
Идентификатор : 1
Формат : AVC
Формат/Информация : Advanced Video Codec
Профиль формата : High@L4.1
Параметр CABAC формата : Да
Параметр ReFrames формата : 4 кадра
Идентификатор кодека : V_MPEG4/ISO/AVC
Продолжительность : 1 ч. 33 м.
Битрейт : 9407 Кбит/сек
Ширина : 1920 пикселей
Высота : 1080 пикселей
Соотношение сторон : 16:9
Режим частоты кадров : Постоянный
Частота кадров : 23,976 кадра/сек
Цветовое пространство : YUV
Субдискретизация насыщенности : 4:2:0
Битовая глубина : 8 бит
Тип развёртки : Прогрессивная
Бит/(Пиксели*Кадры) : 0.189
Размер потока : 5,97 Гбайт (84%)
Заголовок : 21 и больше (MediaClub-kaspr)
Библиотека кодирования : x264 core 130 r2273 b3065e6
Настройки программы : cabac=1 / ref=4 / deblock=1:-3:-3 / analyse=0x3:0x133 / me=umh / subme=11 / psy=1 / psy_rd=1.00:0.10 / mixed_ref=1 / me_range=32 / chroma_me=1 / trellis=2 / 8x8dct=1 / cqm=0 / deadzone=21,11 / fast_pskip=0 / chroma_qp_offset=-3 / threads=12 / lookahead_threads=1 / sliced_threads=0 / nr=0 / decimate=0 / interlaced=0 / bluray_compat=0 / constrained_intra=0 / bframes=6 / b_pyramid=2 / b_adapt=2 / b_bias=0 / direct=3 / weightb=1 / open_gop=0 / weightp=2 / keyint=240 / keyint_min=22 / scenecut=40 / intra_refresh=0 / rc=2pass / mbtree=0 / bitrate=9407 / ratetol=1.0 / qcomp=0.60 / qpmin=0 / qpmax=69 / qpstep=4 / cplxblur=20.0 / qblur=0.5 / ip_ratio=1.40 / pb_ratio=1.30 / aq=1:1.00
Default : Да
Forced : Нет

Аудио
Идентификатор : 2
Формат : DTS
Формат/Информация : Digital Theater Systems
Режим : 16
Параметр Endianness формата : Big
Идентификатор кодека : A_DTS
Продолжительность : 1 ч. 33 м.
Вид битрейта : Постоянный
Битрейт : 1509 Кбит/сек
Каналы : 6 каналов
Расположение каналов : Front: L C R, Side: L R, LFE
Частота : 48,0 КГц
Битовая глубина : 16 бит
Метод сжатия : С потерями
Размер потока : 1005 Мбайт (14%)
Заголовок : Дубляж
Язык : Russian
Default : Да
Forced : Нет

Меню
00:00:00.000 : en:Chapter 01
00:05:54.228 : en:Chapter 02
00:14:47.469 : en:Chapter 03
00:21:47.431 : en:Chapter 04
00:29:08.997 : en:Chapter 05
00:37:08.976 : en:Chapter 06
00:44:17.154 : en:Chapter 07
00:51:19.242 : en:Chapter 08
01:00:12.734 : en:Chapter 09
01:10:07.077 : en:Chapter 10
01:16:20.993 : en:Chapter 11
01:26:53.917 : en:Chapter 12
Свернуть
Знаете ли вы, что...
Джастин Чон на самом деле на десять лет старше своего героя (на момент выхода фильма).

Роль Франсуа Чау — доктор Чанг — это дань уважения доктору Пьеру Чангу, персонажу из телесериала «Остаться в живых» (2004), которого также играл Чау.

Свернуть
Скриншоты
Изображение
Изображение
Изображение
Изображение
Свернуть
Не в сети
Профиль  
 Добавлено: 2013-05-17 20:27 (спустя 1 час 17 минут)
Top-releaser
Аватара пользователя
Стаж: 6 лет 11 месяцев
Возраст: 23
Сообщений: 2084
Спасибок: 11188
Лайков: 13
А я качал-качал, да так и выкачал :(
_________________
Изображение
РАЗДАЧИ БОЛЬШЕ НЕ ПОДДЕРЖИВАЮ, простите.
Не в сети
Профиль  
 Добавлено: 2013-07-21 19:48 (спустя 2 месяца 3 дня)
Стаж: 6 лет 8 месяцев
Сообщений: 33
Спасибок: 3
Хороший ржачный фильм!
Не в сети
Профиль  
Начать новую темуОтветить на тему  [ Сообщений: 3 ] 
Вы не можете начинать темы
Вы не можете отвечать на сообщения
Вы не можете редактировать свои сообщения
Вы не можете удалять свои сообщения