Правила форума

  • В этом разделе создание новых тем Запрещено.
  • Для создания новых тем пользуйтесь Корневым разделом DVD и HD фильмы.
Начать новую темуОтветить на тему  [ Сообщений: 8 ] 
Торрент файл
Размер: 11.57 GB • Зарегистрирован: 5 лет 3 месяца • Статус: Проверено
Скачан: 167 раз • Желающих скачать: 0 • Поблагодарили: 34 раза
 Раздают: 0  |  0 KB/s  ]   Качают: 0  |  0 KB/s  ] 
 Полного источника не было 2 года 11 месяцев 
Сообщения
 Добавлено: 2011-08-25 06:17
Top-releaser
Аватара пользователя
Стаж: 8 лет 7 месяцев
Сообщений: 1286
Спасибок: 3421
Лайков: 7
2199: Космическая одиссея / Space Battleship Yamato
«Последняя надежда человечества...»

Изображение
Год выпуска: 2010
Страна: Япония
Жанр: фантастика, боевик, драма, приключения
Продолжительность: 02:18:36
Перевод: Субтитры, Профессиональный (полное дублирование)

Режиссер: Такаши Ямазаки
Сценарий: Лэйдзи Матсумото, Шимако Сато, Ёсинобу Нисидзаки
Продюсер: Тошиаки Наказава, Казуя Хамана
Оператор: Козо Сибадзаки
Композитор: Наоки Сато

В ролях: Такуя Кимура, Меиса Куроки, Тоширо Янагиба, Наото Огата, Хироюки Икеучи, Синъити Цуцуми, Маико, Рейко Такашима, Тошиюки Нишида, Тошихиро Яшиба, Казуки Намиока, Такуми Саито
Дублёры: Иван Жарков, Дмитрий Курта
Описание: Космический линкор «Ямато» отправляется в опасную космическую экспедицию. Его цель - планета Искандер, которая является последней надеждой разоренной и отравленной радиацией, планеты Земля. Война с далекими пришельцами не прошла бесследно: бескрайние пустыни и разрушенные города, повсеместные мутации, высокий радиационный уровень атмосферы. Планета Искандер хранит нейтрализатор и только он может помочь нашей Родине

Раздача: Изображение

Изображение


Бюджет: $25 000 000
Сборы в мире: $49 710 000
Мировая премьера: 1 декабря 2010
Изображение Релиз на DVD: 18 августа 2011, «Мистерия Звука»
Изображение Релиз на Blu-ray: 18 августа 2011, «Мистерия Звука»[/spoiler][/i]
Качество: BDRip
Формат: Matroska
Видео: AVC; 1920x800 (2.40:1); 9757 Kbps; 23,976 fps; 0,265 bpp
Аудио №1: Russian; AC3; 448 Kbps; CBR; 6 ch
Аудио №2: Japanese; DTS; 1509 Kbps; CBR; 6 ch; 24 bit

MediaInfo
Общее
Уникальный идентификатор : 237597025651608949949707598454824596905 (0xB2BF85CBBBCB52168C2BF6CC144375A9)
Полное имя : E:\Видео\SPACE_BATTLESHIP_YAMATO_1080_BLUEBIRD\SPACE_BATTLESHIP_YAMATO_1080_BLUEBIRD.mkv
Формат : Matroska
Версия формата : Version 2
Размер файла : 11,6 Гбайт
Продолжительность : 2 ч. 18 м.
Общий поток : 12,0 Мбит/сек
Название фильма : SPACE_BATTLESHIP_YAMATO_1080_BLUEBIRD
Дата кодирования : UTC 2011-08-23 21:00:28
Программа кодирования : mkvmerge v4.9.1 ('Ich will') built on Jul 11 2011 23:53:15
Библиотека кодирования : libebml v1.2.1 + libmatroska v1.1.1

Видео
Идентификатор : 1
Формат : AVC
Формат/Информация : Advanced Video Codec
Профиль формата : High@L4.1
Параметр CABAC формата : Да
Параметр ReFrames формата : 3 кадра
Параметры GOP формата : M=1, N=24
Режим смешивания : Container profile=Unknown@0.0
Идентификатор кодека : V_MPEG4/ISO/AVC
Продолжительность : 2 ч. 18 м.
Вид битрейта : Переменный
Битрейт : 9758 Кбит/сек
Максимальный битрейт : 40,0 Мбит/сек
Ширина : 1920 пикс.
Высота : 800 пикс.
Соотношение сторон : 2,40:1
Частота кадров : 23,976 кадр/сек
Цветовое пространство : YUV
Подвыборка цветности : 4:2:0
Битовая глубина : 8 бит
Тип развёртки : Прогрессивная
Бит/(Пиксели*Кадры) : 0.265
Размер потока : 9,45 Гбайт (82%)
Заголовок : AVC, 12 mbit avg, 30 mbit max, 1920x800
Библиотека кодирования : x264 core 116 r2057 0ba8a9c
Настройки программы : Enjoy / High / Quality / CMEGroup / Releases / @ / BlueBird-HD.org / cabac=1 / ref=3 / me=esa / subme=10 / me_range=32 / rc=2pass
Основные цвета : BT.709-5, BT.1361, IEC 61966-2-4, SMPTE RP177
Характеристики трансфера : BT.709-5, BT.1361
Коэффициенты матрицы : BT.709-5, BT.1361, IEC 61966-2-4 709, SMPTE RP177

Аудио #1
Идентификатор : 2
Формат : AC-3
Формат/Информация : Audio Coding 3
Расширение режима : CM (complete main)
Идентификатор кодека : A_AC3
Продолжительность : 2 ч. 18 м.
Вид битрейта : Постоянный
Битрейт : 448 Кбит/сек
Каналы : 6 каналов
Расположение каналов : Front: L C R, Side: L R, LFE
Частота : 48,0 КГц
Битовая глубина : 16 бит
Метод сжатия : С потерями
Размер потока : 444 Мбайт (4%)
Заголовок : AC-3, 448 Kbps, 6 channels, 48.0 KHz, 16 bits (DUB)
Язык : Russian

Аудио #2
Идентификатор : 3
Формат : DTS
Формат/Информация : Digital Theater Systems
Идентификатор кодека : A_DTS
Продолжительность : 2 ч. 18 м.
Вид битрейта : Постоянный
Битрейт : 1510 Кбит/сек
Каналы : 6 каналов
Расположение каналов : Front: L C R, Side: L R, LFE
Частота : 48,0 КГц
Битовая глубина : 24 бит
Метод сжатия : С потерями
Размер потока : 1,46 Гбайт (13%)
Заголовок : DTS, 1 510 Kbps, 6 channels, 48.0 KHz, 24 bits (Core from original DTS-HD)
Язык : Japanese

Текст #1
Идентификатор : 4
Формат : UTF-8
Идентификатор кодека : S_TEXT/UTF8
Идентификатор кодека/Информация : UTF-8 Plain Text
Заголовок : subs RU
Язык : Russian

Текст #2
Идентификатор : 5
Формат : UTF-8
Идентификатор кодека : S_TEXT/UTF8
Идентификатор кодека/Информация : UTF-8 Plain Text
Заголовок : subs EN
Язык : English

Меню
00:00:00.000 : en:00:00:00.000
00:12:45.932 : en:00:12:45.932
00:24:41.021 : en:00:24:41.021
00:34:24.813 : en:00:34:24.813
00:46:38.462 : en:00:46:38.462
00:58:05.315 : en:00:58:05.315
01:11:12.518 : en:01:11:12.518
01:21:23.921 : en:01:21:23.921
01:31:21.893 : en:01:31:21.893
01:44:01.444 : en:01:44:01.444
01:52:37.584 : en:01:52:37.584
02:04:12.195 : en:02:04:12.195
Свернуть

Знаете ли Вы, что...
  • Фильм снят по аниме «Космический линкор «Ямато».
  • «Ямато» — линкор японского императорского флота времен Второй мировой войны.
Свернуть
Скриншоты
Изображение
Изображение
Изображение
Изображение
Изображение
Изображение
Изображение
Изображение
Изображение

Свернуть

Изображение


Последний раз редактировалось Shamman 2011-08-28 13:42, всего редактировалось 1 раз.
Не в сети
Профиль  
 Добавлено: 2011-08-27 00:00 (спустя 1 день 17 часов)
Аватара пользователя
Стаж: 8 лет 11 месяцев
Возраст: 33
Сообщений: 423
Спасибок: 419
Лайков: 2
Трэш. Не ведитесь на оценки кинопоиска и IMDb, их видимо онимэшнеги ставили в порыве фанатической любви ко всему жапанскому.
Не в сети
Профиль  
 Добавлено: 2011-08-28 18:30 (спустя 1 день 18 часов)
Аватара пользователя
Стаж: 6 лет 8 месяцев
Сообщений: 12
Ога, точно - анимэшники делали. Любители нарутоиады - вам сюды... :men:
Не в сети
Профиль  
 Добавлено: 2011-08-28 18:45 (спустя 15 минут)
Стаж: 9 лет 1 месяц
Сообщений: 329
Спасибок: 721
C книгами Артура Кларка фильм не имеет ничего общего? Тогда с какого наши дерьмолокализаторы перевели "Космический линкор «Ямато»" как "2199: Космическая одиссея"?
Не в сети
Профиль  
 Добавлено: 2011-08-28 23:15 (спустя 4 часа)
Стаж: 5 лет 5 месяцев
Возраст: 27
Сообщений: 73
Надо заценить ! А че с переводом то не так ?
_________________
ПРИВОЖУ ВСЕ ИЗ АМЕРИКИ: iPHone, Imac, ШМОТКИ !!!! ДЕШЕВО Всего 7% за услуги !!!
89036007333
viewtopic.php?f=1696&t=424653
Не в сети
Профиль  
 Добавлено: 2011-08-29 21:11 (спустя 21 час)
Стаж: 8 лет 8 месяцев
Сообщений: 16
Спасибок: 8
Может я че-то не понимаю, но почему у меня вместо японской дорожки китайская(или корейская, без понятия)?
Не в сети
Профиль  
 Добавлено: 2013-07-05 19:17 (спустя 1 год 10 месяцев)
Аватара пользователя
Стаж: 7 лет 4 месяца
Возраст: 25
Сообщений: 13
Лайков: 1
Ну и фильмец... Еле досмотрел. Больше напоминает какую-то пародию на американский фильм-катастрофу, только без юмора. Тошнота! :ze_le_ny: :ze_le_ny: :ze_le_ny:
Не в сети
Профиль  
 Добавлено: 2013-07-05 23:43 (спустя 4 часа)
Аватара пользователя
Стаж: 7 лет 2 месяца
Сообщений: 119
Лайков: 2

sareff:

Ну и фильмец... Еле досмотрел. Больше напоминает какую-то пародию на американский фильм-катастрофу, только без юмора. Тошнота! :ze_le_ny: :ze_le_ny: :ze_le_ny:

Пфф....я еле трейлер досмотрел, а ты говоришь фильмец :-D
Не в сети
Профиль  
Начать новую темуОтветить на тему  [ Сообщений: 8 ] 
Вы не можете начинать темы
Вы не можете отвечать на сообщения
Вы не можете редактировать свои сообщения
Вы не можете удалять свои сообщения