Правила форума

  • В этом разделе создание новых тем Запрещено.
  • Для создания новых тем пользуйтесь Корневым разделом DVD и HD фильмы.
Начать новую темуОтветить на тему  [ Сообщений: 4 ] 
Торрент файл
Размер: 8.25 GB • Зарегистрирован: 2 года 6 месяцев • Статус: Проверено
Скачан: 117 раз • Желающих скачать: 0 • Поблагодарили: 41 раз
 Раздают: 0  |  0 KB/s  ]   Качают: 0  |  0 KB/s  ] 
 Полного источника не было 2 дня 14 часов 
Сообщения
 Добавлено: 2014-05-22 05:53
DVD Release Group
Аватара пользователя
Стаж: 7 лет 1 месяц
Сообщений: 3559
Спасибок: 247335
Лайков: 1018
3 дня на убийство

3 Days to Kill


Изображение


Год выпуска: 2014
Страна: США, Франция
Жанр: Боевик, триллер, драма, криминал
Продолжительность: 01:57:02
Перевод: Профессиональный (полное дублирование)
Субтитры: Английские
Режиссер: МакДжи
В ролях: Кевин Костнер, Эмбер Хёрд, Хейли Стайнфелд, Конни Нильсен, Томас Лемаркус, Рихард Заммель, Марк Андреони, Бруно Риччи, Йонас Блоке, Эрик Эбони
Описание: Умирающему агенту ЦРУ предлагают экспериментальное лекарство, которое может спасти его жизнь, в обмен на одно последнее задание…
Изображение Изображение
Sample:
http://multi-up.com/975277
Качество: BDRip 1080p
Формат: MKV
Видео кодек: H.264
Аудио кодек: AC3, DTS
Видео: 1920x808 23.98fps 8205kbps
Аудио:
Audio Rus: AC3 48kHz 6ch 384kbps
Audio Eng: DTS 48kHz 6ch 1510kbps
"MediaInfo"
Формат : Matroska
Версия формата : Version 2
Размер файла : 8,25 Гбайт
Продолжительность : 1 ч. 57 м.
Общий поток : 10,1 Мбит/сек
Дата кодирования : UTC 2014-05-21 18:41:52
Программа кодирования : mkvmerge v6.9.1 ('Blue Panther') 64bit built on Apr 18 2014 18:23:38
Библиотека кодирования : libebml v1.3.0 + libmatroska v1.4.1

Видео
Идентификатор : 1
Формат : AVC
Формат/Информация : Advanced Video Codec
Профиль формата : High@L4.1
Параметр CABAC формата : Да
Параметр ReFrames формата : 5 кадров
Идентификатор кодека : V_MPEG4/ISO/AVC
Продолжительность : 1 ч. 57 м.
Битрейт : 8205 Кбит/сек
Ширина : 1920 пикселей
Высота : 808 пикселей
Соотношение сторон : 2,40:1
Режим частоты кадров : Постоянный
Частота кадров : 23,976 кадра/сек
Цветовое пространство : YUV
Субдискретизация насыщенности : 4:2:0
Битовая глубина : 8 бит
Тип развёртки : Прогрессивная
Бит/(Пиксели*Кадры) : 0.221
Размер потока : 6,54 Гбайт (79%)
Библиотека кодирования : x264 core 142 r2431 ac76440
Настройки программы : cabac=1 / ref=5 / deblock=1:0:0 / analyse=0x3:0x133 / me=umh / subme=7 / psy=1 / psy_rd=1.00:0.00 / mixed_ref=1 / me_range=16 / chroma_me=1 / trellis=1 / 8x8dct=1 / cqm=0 / deadzone=21,11 / fast_pskip=0 / chroma_qp_offset=-2 / threads=12 / lookahead_threads=2 / sliced_threads=0 / nr=0 / decimate=1 / interlaced=0 / bluray_compat=0 / constrained_intra=0 / bframes=3 / b_pyramid=2 / b_adapt=1 / b_bias=0 / direct=1 / weightb=1 / open_gop=0 / weightp=2 / keyint=250 / keyint_min=23 / scenecut=40 / intra_refresh=0 / rc_lookahead=40 / rc=2pass / mbtree=1 / bitrate=8205 / ratetol=1.0 / qcomp=0.60 / qpmin=0 / qpmax=69 / qpstep=4 / cplxblur=20.0 / qblur=0.5 / ip_ratio=1.40 / aq=1:1.00
Язык : English
Default : Да
Forced : Нет

Аудио #1
Идентификатор : 2
Формат : AC-3
Формат/Информация : Audio Coding 3
Расширение режима : CM (complete main)
Параметр Endianness формата : Big
Идентификатор кодека : A_AC3
Продолжительность : 1 ч. 57 м.
Вид битрейта : Постоянный
Битрейт : 384 Кбит/сек
Каналы : 6 каналов
Расположение каналов : Front: L C R, Side: L R, LFE
Частота : 48,0 КГц
Битовая глубина : 16 бит
Метод сжатия : С потерями
Размер потока : 321 Мбайт (4%)
Язык : Russian
Default : Да
Forced : Нет

Аудио #2
Идентификатор : 3
Формат : DTS
Формат/Информация : Digital Theater Systems
Режим : 16
Параметр Endianness формата : Big
Идентификатор кодека : A_DTS
Продолжительность : 1 ч. 57 м.
Вид битрейта : Постоянный
Битрейт : 1509 Кбит/сек
Каналы : 6 каналов
Расположение каналов : Front: L C R, Side: L R, LFE
Частота : 48,0 КГц
Битовая глубина : 24 бит
Метод сжатия : С потерями
Размер потока : 1,23 Гбайт (15%)
Язык : English
Default : Нет
Forced : Нет

Меню
00:00:00.000 : en:00:00:00.000
00:03:35.132 : en:00:03:35.132
00:06:55.206 : en:00:06:55.206
00:10:49.482 : en:00:10:49.482
00:15:27.468 : en:00:15:27.468
00:20:18.467 : en:00:20:18.467
00:24:32.721 : en:00:24:32.721
00:28:36.214 : en:00:28:36.214
00:33:25.420 : en:00:33:25.420
00:36:53.044 : en:00:36:53.044
00:39:32.912 : en:00:39:32.912
00:43:14.926 : en:00:43:14.926
00:48:20.731 : en:00:48:20.731
00:52:12.379 : en:00:52:12.379
00:56:39.855 : en:00:56:39.855
01:07:27.376 : en:01:07:27.376
01:12:36.602 : en:01:12:36.602
01:18:50.809 : en:01:18:50.809
01:24:20.013 : en:01:24:20.013
01:29:43.044 : en:01:29:43.044
01:36:25.529 : en:01:36:25.529
01:39:32.675 : en:01:39:32.675
01:46:41.353 : en:01:46:41.353
01:49:38.822 : en:01:49:38.822
Свернуть

"Скриншоты"
Изображение
Изображение
Изображение
Изображение
Свернуть
В сети
Профиль  
 Добавлено: 2014-05-23 00:23 (спустя 18 часов)
Аватара пользователя
Стаж: 8 лет 1 месяц
Сообщений: 97
Спасибок: 12
как фильм?
Не в сети
Профиль  
 Добавлено: 2014-05-23 22:05 (спустя 21 час)
Top-seeder
Стаж: 9 лет 1 месяц
Сообщений: 748
Спасибок: 636
Лайков: 3
Ricki2008
Хороший фильм , местами даже комедийный.
Не в сети
Профиль  
 Добавлено: 2014-05-24 21:27 (спустя 23 часа)
Аватара пользователя
Стаж: 5 лет 6 месяцев
Сообщений: 42
Лайков: 5
Надо разобраться, все ли темы раскрыты.
Не в сети
Профиль  
Начать новую темуОтветить на тему  [ Сообщений: 4 ] 
Вы не можете начинать темы
Вы не можете отвечать на сообщения
Вы не можете редактировать свои сообщения
Вы не можете удалять свои сообщения