Правила форума

  • В этом разделе создание новых тем Запрещено.
  • Для создания новых тем пользуйтесь Корневым разделом DVD и HD фильмы.
Начать новую темуОтветить на тему  [ Сообщений: 11 ] 
Торрент файл
Размер: 8.14 GB • Зарегистрирован: 2 года 5 месяцев • Статус: Проверено
Скачан: 223 раза • Желающих скачать: 0 • Поблагодарили: 81 раз
 Раздают: 2  |  0 KB/s  ]   Качают: 0  |  0 KB/s  ] 
Сообщения
 Добавлено: 2014-06-10 14:14
Аватара пользователя
Стаж: 9 лет 1 месяц
Сообщений: 8018
Спасибок: 122271
Лайков: 1194
3 дня на убийство (Расширенная версия) / 3 Days to Kill (EXTENDED Cut)

Изображение


Год выпуска: 2014
Страна: Изображение США Изображение Франция Изображение Греция Изображение Россия
Жанр: боевик, криминал, триллер, драма, комедия
Продолжительность: 02:02:18
Субтитры: Русские, английские
Перевод: Профессиональный (полное дублирование) [Лицензия] + Авторский (одноголосый, закадровый) [Д. Есарев]

Примечание: EXTENDED - Расширенная версия! Длиннее театральной на ~5 минут. Расширенные сцены (в дубляже) переведены русскими субтитрами.


Режиссер: МакДжи
Сценарий: Люк Бессон, Ади Хасак
Продюсер: Люк Бессон, Ади Хасак, Райан Кэвэна
Оператор: Тьерри Арбогаст
Композитор: Гийом Пассел

В ролях: Кевин Костнер, Эмбер Хёрд, Хейли Стайнфелд, Конни Нильсен, Томас Лемаркус, Рихард Заммель, Марк Андреони, Бруно Риччи, Йонас Блоке, Эрик Эбони

Описание: В секретной лаборатории ученые разработали препарат, который позволяет человеку справиться с любой неизлечимой болезнью. Руководство спецслужб предлагает принять это лекарство экс-агенту спецслужб Итану Раннеру, которому врачи объявили смертельный диагноз. Но он должен выполнить еще одно задание, которое, впрочем, может стоить ему жизни. Теперь вокруг Раннера начинают происходить странные вещи. Что это — галлюцинации, побочный эффект от таблеток или мир действительно полон ужаса и кошмара?

Изображение Изображение

Раздача группы: Изображение

Качество: BDRip (1080p)
Формат: Matroska
Видео: MPEG-4 AVC, 7806 Кбит/с, 1920x810, 23.976 кадр/с
Аудио №1: Русский (AC3, 48,0 КГц, 6 ch, 640 Кбит/c) Дубляж
Аудио №2: Русский (AC3, 48,0 КГц, 6 ch, 448 Кбит/c) Д. Есарев
Аудио №3: Английский (AC3, 48,0 КГц, 6 ch, 640 Кбит/c)

MediaInfo
Общее
Уникальный идентификатор : 249815912587004566640408303192571379306 (0xBBF0CB6F126C0DD09A58E77C4D9FFE6A)
Полное имя : C:\Фильмы\3.Days.To.Kill.2014.EXTENDED.1080p.BDRip.HDR.mkv
Формат : Matroska
Версия формата : Version 2
Размер файла : 8,14 Гбайт
Продолжительность : 2 ч. 2 м.
Общий поток : 9532 Кбит/сек
Название фильма : ~V ad~
Дата кодирования : UTC 2014-06-09 14:30:22
Программа кодирования : mkvmerge v6.5.0 ('Isn't she lovely') built on Oct 20 2013 12:50:05
Библиотека кодирования : libebml v1.3.0 + libmatroska v1.4.1

Видео
Идентификатор : 1
Формат : AVC
Формат/Информация : Advanced Video Codec
Профиль формата : High@L4.1
Параметр CABAC формата : Да
Параметр ReFrames формата : 5 кадров
Идентификатор кодека : V_MPEG4/ISO/AVC
Продолжительность : 2 ч. 2 м.
Битрейт : 7806 Кбит/сек
Ширина : 1920 пикселей
Высота : 810 пикселей
Соотношение сторон : 2,40:1
Режим частоты кадров : Постоянный
Частота кадров : 23,976 кадра/сек
Цветовое пространство : YUV
Субдискретизация насыщенности : 4:2:0
Битовая глубина : 8 бит
Тип развёртки : Прогрессивная
Бит/(Пиксели*Кадры) : 0.209
Размер потока : 6,51 Гбайт (80%)
Заголовок : ~V~
Библиотека кодирования : x264 core 142 r2409+42 04be48a tMod [8-bit@all X86_64]
Настройки программы : cabac=1 / ref=5 / deblock=1:-1:-1 / analyse=0x3:0x133 / me=umh / subme=11 / psy=1 / fade_compensate=0.00 / psy_rd=1.00:0.00 / mixed_ref=1 / me_range=32 / chroma_me=1 / trellis=2 / 8x8dct=1 / cqm=0 / deadzone=21,11 / fast_pskip=0 / chroma_qp_offset=-2 / threads=12 / lookahead_threads=1 / sliced_threads=0 / nr=0 / decimate=0 / interlaced=0 / bluray_compat=0 / constrained_intra=0 / fgo=0 / bframes=9 / b_pyramid=2 / b_adapt=2 / b_bias=0 / direct=3 / weightb=1 / open_gop=0 / weightp=2 / keyint=240 / keyint_min=23 / scenecut=40 / intra_refresh=0 / rc=2pass / mbtree=0 / bitrate=7806 / ratetol=1.0 / qcomp=0.60 / qpmin=0:0:0 / qpmax=69:69:69 / qpstep=4 / cplxblur=20.0 / qblur=0.5 / ip_ratio=1.40 / pb_ratio=1.30 / aq=2:0.80 / aq-sensitivity=10.00 / aq-factor=1.00:1.00:1.00 / aq2=0 / aq3=0
Язык : English
Default : Да
Forced : Нет

Аудио #1
Идентификатор : 2
Формат : AC-3
Формат/Информация : Audio Coding 3
Расширение режима : CM (complete main)
Параметр Endianness формата : Big
Идентификатор кодека : A_AC3
Продолжительность : 2 ч. 2 м.
Вид битрейта : Постоянный
Битрейт : 448 Кбит/сек
Каналы : 6 каналов
Расположение каналов : Front: L C R, Side: L R, LFE
Частота : 48,0 КГц
Битовая глубина : 16 бит
Метод сжатия : С потерями
Размер потока : 392 Мбайт (5%)
Заголовок : Есарев
Язык : Russian
Default : Да
Forced : Нет

Аудио #2
Идентификатор : 3
Формат : AC-3
Формат/Информация : Audio Coding 3
Расширение режима : CM (complete main)
Параметр Endianness формата : Big
Идентификатор кодека : A_AC3
Продолжительность : 2 ч. 2 м.
Вид битрейта : Постоянный
Битрейт : 640 Кбит/сек
Каналы : 6 каналов
Расположение каналов : Front: L C R, Side: L R, LFE
Частота : 48,0 КГц
Битовая глубина : 16 бит
Метод сжатия : С потерями
Размер потока : 560 Мбайт (7%)
Заголовок : DUB
Язык : Russian
Default : Нет
Forced : Нет

Аудио #3
Идентификатор : 4
Формат : AC-3
Формат/Информация : Audio Coding 3
Расширение режима : CM (complete main)
Параметр Endianness формата : Big
Идентификатор кодека : A_AC3
Продолжительность : 2 ч. 2 м.
Вид битрейта : Постоянный
Битрейт : 640 Кбит/сек
Каналы : 6 каналов
Расположение каналов : Front: L C R, Side: L R, LFE
Частота : 48,0 КГц
Битовая глубина : 16 бит
Метод сжатия : С потерями
Размер потока : 560 Мбайт (7%)
Язык : English
Default : Нет
Forced : Нет

Текст #1
Идентификатор : 5
Формат : UTF-8
Идентификатор кодека : S_TEXT/UTF8
Идентификатор кодека/Информация : UTF-8 Plain Text
Заголовок : forced
Язык : Russian
Default : Нет
Forced : Нет

Текст #2
Идентификатор : 6
Формат : UTF-8
Идентификатор кодека : S_TEXT/UTF8
Идентификатор кодека/Информация : UTF-8 Plain Text
Заголовок : Full
Язык : Russian
Default : Нет
Forced : Нет

Текст #3
Идентификатор : 7
Формат : UTF-8
Идентификатор кодека : S_TEXT/UTF8
Идентификатор кодека/Информация : UTF-8 Plain Text
Заголовок : Eng
Язык : English
Default : Нет
Forced : Нет

Меню
00:00:00.000 : en:00:00:00.000
00:03:35.132 : en:00:03:35.132
00:06:58.543 : en:00:06:58.543
00:10:56.573 : en:00:10:56.573
00:16:00.710 : en:00:16:00.710
00:20:51.709 : en:00:20:51.709
00:25:05.963 : en:00:25:05.963
00:29:24.346 : en:00:29:24.346
00:34:20.392 : en:00:34:20.392
00:37:46.806 : en:00:37:46.806
00:40:27.300 : en:00:40:27.300
00:44:05.226 : en:00:44:05.226
00:49:24.795 : en:00:49:24.795
00:53:16.443 : en:00:53:16.443
00:57:40.874 : en:00:57:40.874
01:08:28.396 : en:01:08:28.396
01:13:37.621 : en:01:13:37.621
01:19:51.828 : en:01:19:51.828
01:25:59.070 : en:01:25:59.070
01:32:28.167 : en:01:32:28.167
01:39:10.569 : en:01:39:10.569
01:42:49.413 : en:01:42:49.413
01:51:49.452 : en:01:51:49.452
01:54:55.597 : en:01:54:55.597
Свернуть
Знаете ли вы, что...
Фильм снимался в Сербии и Франции.

18 апреля 2013 года во время съемок в Сербии Кевин Костнер встретился с премьер-министром Сербии Ивица Дачичом.

Свернуть
Скриншоты
Изображение
Изображение
Изображение
Изображение
Свернуть
Не в сети
Профиль  
 Добавлено: 2014-06-12 20:31 (спустя 2 дня 6 часов)
Стаж: 6 лет 2 месяца
Сообщений: 15
Если-б не звук, кино ништяк...
Не в сети
Профиль  
 Добавлено: 2014-06-15 17:23 (спустя 2 дня 20 часов)
Аватара пользователя
Стаж: 8 лет 10 месяцев
Возраст: 26
Сообщений: 31
что со звуком не так?
Не в сети
Профиль  
 Добавлено: 2014-06-22 12:24 (спустя 6 дней)
Аватара пользователя
Стаж: 8 лет 6 месяцев
Сообщений: 29
Спасибок: 32
со звуком что то не так?
Не в сети
Профиль  
 Добавлено: 2014-06-22 15:31 (спустя 3 часа)
Аватара пользователя
Стаж: 8 лет 6 месяцев
Сообщений: 29
Спасибок: 32
со звуком все ок
Не в сети
Профиль  
 Добавлено: 2014-06-22 19:00 (спустя 3 часа)
Аватара пользователя
Стаж: 6 лет 9 месяцев
Возраст: 30
Сообщений: 90
Лайков: 6
звук норма,фильм понравился.
Не в сети
Профиль  
 Добавлено: 2014-06-26 20:10 (спустя 4 дня)
Стаж: 2 года 6 месяцев
Сообщений: 7
хороший фильм, звук в порядке
____________
http://www.new-project.biz/nerzhavejushhaja-stal.html
Не в сети
Профиль  
 Добавлено: 2014-07-31 23:20 (спустя 1 месяц 5 дней)
Аватара пользователя
Стаж: 8 лет 10 месяцев
Возраст: 26
Сообщений: 31
проблемы с лицензионной звуковой дорожкой, проблема в том , что скачки звуковой громкости: то есть делаешь звук тише будут моменты увеличения громкости, убавляешь звук местами станет не слышен.........
Но автору все равно спс, надеюсь это проблему в скором уберут , фильм достойный, огорчило , что звук был с перепадами =(
Не в сети
Профиль  
 Добавлено: 2014-08-08 15:35 (спустя 7 дней)
Стаж: 8 лет 1 месяц
Сообщений: 104
Лайков: 2
фильм совсем не впечатлил
Не в сети
Профиль  
 Добавлено: 2014-09-27 19:11 (спустя 1 месяц 19 дней)
Аватара пользователя
Стаж: 7 лет 5 месяцев
Возраст: 28
Сообщений: 6
Фильм хороший, плохо что не полное дублирование актеров по звуку.
Не в сети
Профиль  
 Добавлено: 2014-09-30 19:11 (спустя 2 дня 23 часа)
Стаж: 9 лет
Сообщений: 312
Спасибок: 347
Лайков: 9
До появления белокурой бестии фильм подавал надежды, после появления скатился в трэш. Жаль.
Не в сети
Профиль  
Начать новую темуОтветить на тему  [ Сообщений: 11 ] 
Вы не можете начинать темы
Вы не можете отвечать на сообщения
Вы не можете редактировать свои сообщения
Вы не можете удалять свои сообщения